<?xml version="1.0" standalone="no"?>
<!DOCTYPE svg PUBLIC "-//W3C//DTD SVG 1.1//EN" "http://www.w3.org/Graphics/SVG/1.1/DTD/svg11.dtd" >
<svg xmlns="http://www.w3.org/2000/svg" xmlns:xlink="http://www.w3.org/1999/xlink" version="1.1">
<metadata>
Created by FontForge 20170731 at Wed Mar  1 12:58:54 2023
 By Aleksey,,,
Copyright (c) 2009-2011 by Accademia di Belle Arti di Urbino and students of MA course of Visual design. Some rights reserved.
</metadata>
<defs>
<font id="Titillium-BoldItalic" horiz-adv-x="1146" >
  <font-face 
    font-family="Titillium Bd"
    font-weight="700"
    font-style="italic"
    font-stretch="normal"
    units-per-em="2048"
    panose-1="0 0 8 0 0 0 0 0 0 0"
    ascent="1536"
    descent="-512"
    x-height="1024"
    cap-height="1393"
    bbox="-324 -633 2216 2320"
    underline-thickness="61"
    underline-position="-265"
    slope="-13"
    unicode-range="U+0020-F6C3"
  />
<missing-glyph horiz-adv-x="456" 
 />
    <glyph glyph-name=".notdef" horiz-adv-x="456" 
 />
    <glyph glyph-name=".null" horiz-adv-x="0" 
 />
    <glyph glyph-name="nonmarkingreturn" horiz-adv-x="682" 
 />
    <glyph glyph-name="space" unicode=" " horiz-adv-x="450" 
 />
    <glyph glyph-name="exclam" unicode="!" horiz-adv-x="333" 
d="M158 528l194 906h293l-229 -906h-258zM29 0l71 313h279l-72 -313h-278z" />
    <glyph glyph-name="quotedbl" unicode="&#x22;" horiz-adv-x="626" 
d="M459 895h-236l119 514h256zM803 895h-236l119 514h256z" />
    <glyph glyph-name="numbersign" unicode="#" 
d="M1186 338h-197l-84 -338h-237l84 338h-213l-84 -338h-238l84 338h-197l58 229h196l54 217h-197l57 230h197l84 338h238l-84 -338h213l84 338h237l-84 -338h197l-58 -230h-196l-53 -217h196zM809 567l53 217h-213l-53 -217h213z" />
    <glyph glyph-name="dollar" unicode="$" 
d="M1247 1303l-51 -195q-80 12 -170 22l-160 -352q143 -66 191.5 -135.5t48.5 -198.5q0 -225 -139 -347t-373 -122q-18 0 -86 5l-100 -224h-175l113 250q-44 11 -85.5 24t-60.5 20l-20 7l45 199q106 -21 217 -33l168 375q-130 62 -184.5 135.5t-54.5 200.5
q0 193 124.5 318.5t333.5 125.5q45 0 127 -8l95 209h176l-107 -240q34 -8 65.5 -17t46.5 -14zM827 412q0 40 -14.5 63.5t-58.5 50.5l-142 -311q106 3 160.5 49t54.5 148zM649 967q0 -42 14.5 -66.5t59.5 -52.5l133 297h-18q-88 0 -138.5 -49.5t-50.5 -128.5z" />
    <glyph glyph-name="percent" unicode="%" 
d="M588 1272q27 0 29 -31t-17 -102q-18 -74 -34.5 -104.5t-43.5 -30.5t-28.5 32t16.5 103q20 75 36 104t42 29zM221 12l869 1463l161 -62l-868 -1462zM309 1139q-36 -148 8 -223.5t164 -75.5t202 75.5t118 223.5t-8 222.5t-164 74.5t-202 -74.5t-118 -222.5zM678 299
q36 148 117.5 222.5t201.5 74.5t164 -74.5t8 -222.5t-118 -223.5t-201 -75.5q-120 0 -164 75.5t-8 223.5zM879 299q-20 -71 -18.5 -103t28.5 -32t43.5 30t36.5 105q18 71 16 102t-29 31t-43 -29.5t-34 -103.5z" />
    <glyph glyph-name="ampersand" unicode="&#x26;" horiz-adv-x="1312" 
d="M881 1417q360 0 360 -309q0 -145 -74.5 -229.5t-285.5 -167.5l155 -209q25 36 58.5 117t42.5 131h252q-23 -93 -89.5 -224.5t-123.5 -199.5l163 -191l-190 -164l-148 189q-192 -185 -450 -185q-123 0 -209 28.5t-131 80.5t-63.5 112t-18.5 136q0 178 99 294t302 197
q-61 106 -61 219q0 97 31.5 170.5t88.5 117.5t130 65.5t162 21.5zM608 209q65 0 142.5 35.5t119.5 79.5l-241 342q-121 -56 -168 -130t-47 -169q0 -158 194 -158zM743 1034q0 -114 41 -176q113 59 148 104.5t35 120.5q0 49 -22.5 77t-67.5 28q-64 0 -99 -42t-35 -112z" />
    <glyph glyph-name="quotesingle" unicode="'" horiz-adv-x="282" 
d="M459 895h-236l119 514h256z" />
    <glyph glyph-name="parenleft" unicode="(" horiz-adv-x="479" 
d="M588 1532h256q-9 -14 -25.5 -39.5t-63.5 -107t-89.5 -165.5t-94.5 -206t-89.5 -237.5t-63 -251t-25.5 -255.5q0 -128 8.5 -258.5t16.5 -197.5l8 -66h-262q-7 22 -17 64t-26.5 178t-16.5 280q0 132 26.5 273.5t69.5 261t94.5 234t103 202t94.5 154.5t70 102z" />
    <glyph glyph-name="parenright" unicode=")" horiz-adv-x="481" 
d="M190 -242h-256q9 14 25.5 39.5t63.5 107t89.5 165.5t94.5 206t89.5 237.5t63 251t25.5 255.5q0 128 -8.5 258.5t-16.5 197.5l-8 66h262q7 -22 17 -64t26.5 -178t16.5 -280q0 -132 -26.5 -273.5t-69.5 -261t-94.5 -234t-103 -202t-94.5 -154.5t-70 -102z" />
    <glyph glyph-name="asterisk" unicode="*" horiz-adv-x="866" 
d="M1047 1022h-252l77 -246l-149 -45l-84 248l-211 -162l-96 121l215 160l-209 149l94 129l207 -149l80 248l153 -52l-77 -249h252v-152z" />
    <glyph glyph-name="plus" unicode="+" 
d="M219 391v246h346v344h246v-344h350v-246h-350v-348h-246v348h-346z" />
    <glyph glyph-name="comma" unicode="," horiz-adv-x="358" 
d="M119 -266h-228l240 579h301z" />
    <glyph glyph-name="hyphen" unicode="-" horiz-adv-x="546" 
d="M109 420l61 246h518l-61 -246h-518z" />
    <glyph glyph-name="period" unicode="." horiz-adv-x="311" 
d="M16 0l72 313h279l-72 -313h-279z" />
    <glyph glyph-name="slash" unicode="/" horiz-adv-x="958" 
d="M334 -49l-258 90l882 1429l259 -90z" />
    <glyph glyph-name="zero" unicode="0" 
d="M821 1376q230 0 336.5 -111t106.5 -323q0 -216 -48 -398.5t-132 -306.5t-199 -193t-248 -69q-230 0 -336 111.5t-106 323.5q0 216 48 398t131.5 306t198.5 193t248 69zM815 1135q-74 0 -138.5 -67t-105.5 -171t-64.5 -223t-23.5 -228q0 -120 34 -174.5t124 -54.5
q75 0 140 67t106 170t64.5 221t23.5 226q0 123 -34.5 178.5t-125.5 55.5z" />
    <glyph glyph-name="one" unicode="1" 
d="M397 1057l523 295h243l-311 -1352h-281l236 1020l-334 -184z" />
    <glyph glyph-name="two" unicode="2" 
d="M999 0h-870l55 229l408 355q197 170 274.5 256.5t77.5 152.5q0 80 -42.5 111t-158.5 31q-62 0 -142.5 -7.5t-130.5 -15.5l-50 -8l37 205q22 8 59.5 19t135.5 29.5t175 18.5q210 0 308 -75.5t98 -237.5q0 -89 -22.5 -162.5t-72.5 -138.5t-106.5 -117t-146.5 -121
l-373 -282h547z" />
    <glyph glyph-name="three" unicode="3" 
d="M406 1108l28 184q20 9 56 23t138 37.5t193 23.5q210 0 309 -70t99 -223q0 -139 -54.5 -220.5t-191.5 -151.5q73 -43 101 -95.5t28 -158.5q0 -216 -160 -349t-422 -133q-89 0 -191.5 18.5t-160.5 36.5l-57 19l59 193q234 -25 375 -25q112 0 190 60t78 167q0 60 -38.5 86
t-137.5 27l-258 4l51 209l265 12q80 3 157.5 71.5t77.5 154.5q0 127 -184 127q-71 0 -158.5 -6.5t-139.5 -13.5z" />
    <glyph glyph-name="four" unicode="4" 
d="M659 -10l56 239h-572l47 205l566 918h307l-571 -889h276l84 364h278l-83 -364h124l-55 -234h-123l-55 -239h-279z" />
    <glyph glyph-name="five" unicode="5" 
d="M508 1354h805l-56 -242h-581l-121 -319q146 63 236 63q356 0 356 -328q0 -160 -70.5 -287t-193.5 -196.5t-275 -69.5q-108 0 -228 22t-186 44l-67 22l63 213q238 -59 392 -59q118 0 197 74t79 176q0 78 -36.5 112.5t-123.5 34.5q-45 0 -98.5 -11t-83.5 -21l-31 -11
l-204 47z" />
    <glyph glyph-name="six" unicode="6" 
d="M1311 1331l-88 -227q-160 31 -322 31q-126 0 -210.5 -86t-143.5 -250q18 8 48.5 20t104 31.5t123.5 19.5q371 0 371 -356q0 -243 -145 -391t-410 -148q-204 0 -320 119.5t-116 362.5q0 122 32 250t97 247.5t154 213.5t214.5 151t266.5 57q68 0 154 -11t138 -23zM739 629
q-58 0 -115.5 -12.5t-85.5 -24.5l-28 -12q-18 -79 -18 -131q0 -43 8.5 -81.5t26.5 -73.5t51.5 -56t78.5 -21q121 0 184.5 69t63.5 201q0 78 -43.5 110t-122.5 32z" />
    <glyph glyph-name="seven" unicode="7" 
d="M403 1110l56 242h844l-82 -355l-725 -1034l-256 74l710 989l17 84h-564z" />
    <glyph glyph-name="eight" unicode="8" 
d="M903 1378q193 0 298.5 -78.5t105.5 -193.5q0 -79 -16 -141.5t-50 -110.5t-73 -83.5t-97 -74.5q107 -81 107 -252q0 -137 -86.5 -246t-229 -168t-311.5 -59q-222 0 -320 85.5t-98 258.5q0 62 26 122t69.5 109t84 84t86.5 66q-41 41 -61 79t-22.5 58.5t-2.5 55.5v10
q0 91 40 176.5t113.5 153t187 108.5t249.5 41zM614 213q111 0 189 68t78 151q0 52 -18 80.5t-70 50.5h-181q-75 -27 -124.5 -78t-49.5 -116q0 -85 40 -120.5t136 -35.5zM842 1137q-97 0 -168.5 -64.5t-71.5 -140.5q0 -49 13.5 -74.5t54.5 -60.5h180q62 36 108 92.5t46 105.5
q0 63 -40 102.5t-122 39.5z" />
    <glyph glyph-name="nine" unicode="9" 
d="M162 20l86 244q118 -31 280 -31q133 0 239.5 85t141.5 225l-54 -13q-54 -13 -130 -27t-119 -14q-177 0 -263.5 86.5t-86.5 276.5q0 69 21.5 140t69.5 140.5t116 123.5t170 87t223 33q193 0 288 -136.5t95 -379.5q0 -210 -63.5 -381t-171 -279.5t-246 -166.5t-293.5 -58
q-68 0 -143.5 11t-117.5 22zM694 739q49 0 117.5 7.5t112.5 15.5l43 8q31 157 -10.5 253.5t-161.5 96.5q-106 0 -185.5 -67.5t-79.5 -175.5q0 -81 37 -109.5t127 -28.5z" />
    <glyph glyph-name="colon" unicode=":" horiz-adv-x="323" 
d="M164 606l72 314h278l-72 -314h-278zM20 0l72 313h279l-72 -313h-279z" />
    <glyph glyph-name="semicolon" unicode=";" horiz-adv-x="358" 
d="M-111 -266h228l313 579h-301zM195 606l71 314h279l-72 -314h-278z" />
    <glyph glyph-name="less" unicode="&#x3c;" 
d="M1065 723l-535 -203l535 -221v-279l-832 381v226l832 374v-278z" />
    <glyph glyph-name="equal" unicode="=" 
d="M238 604v248h909v-248h-909zM238 178v248h909v-248h-909z" />
    <glyph glyph-name="greater" unicode="&#x3e;" 
d="M852 520l-535 203v278l832 -374v-226l-832 -381v279z" />
    <glyph glyph-name="question" unicode="?" horiz-adv-x="882" 
d="M1069 1098q0 -73 -15.5 -128.5t-55.5 -107.5t-93.5 -97t-144.5 -108q-111 -76 -127 -149l-19 -82h-258q1 100 17 184q17 102 192 226q120 85 166.5 132.5t46.5 100.5q0 64 -35 83t-114 19q-64 0 -137 -6t-114 -12l-42 -6l29 215q184 55 327 55q377 0 377 -319zM246 0
l78 344h278l-78 -344h-278z" />
    <glyph glyph-name="at" unicode="@" horiz-adv-x="1964" 
d="M1300 1489q209 0 364 -46.5t245.5 -127t135 -194t43.5 -242t-40 -275.5q-89 -337 -205.5 -480.5t-312.5 -143.5q-172 0 -232 90q-68 -34 -185 -64.5t-202 -30.5q-81 0 -140 32.5t-90.5 84.5t-46 122t-12 140t16.5 142q52 260 179 406.5t337 146.5q97 0 500 -68
q-141 -637 -146 -674q-4 -35 17.5 -51t64.5 -16q60 0 107 87t102 302q20 79 29 143t6.5 131t-22 118.5t-61.5 97.5t-106.5 76t-162 47.5t-223.5 17.5q-344 0 -541.5 -180.5t-278.5 -524.5q-20 -84 -25.5 -162.5t5 -153.5t37 -140t75 -119.5t115.5 -93t161.5 -60t209.5 -21.5
q35 0 105 4.5t123 9.5l52 5l-53 -227q-199 -21 -291 -21q-137 0 -254 28t-204.5 79t-155 121.5t-108 156t-60 182.5t-16 201t29.5 211q60 252 158 431t238 290t315.5 162t402.5 51zM983 209q57 -1 127.5 22.5t122.5 55.5q7 83 106 499q-136 29 -186 29q-49 0 -89 -26
t-68 -73t-47 -100t-34 -120q-28 -123 -9.5 -203.5t77.5 -83.5z" />
    <glyph glyph-name="A" unicode="A" horiz-adv-x="1128" 
d="M27 0l626 1393h488l-43 -1393h-283l8 242h-405l-109 -242h-282zM819 1147l-295 -660h310l28 660h-43z" />
    <glyph glyph-name="B" unicode="B" horiz-adv-x="1173" 
d="M455 1393h483q175 0 270 -74.5t95 -226.5q0 -133 -57.5 -219t-172.5 -156q79 -48 106 -103t27 -139q0 -98 -34.5 -182.5t-100.5 -150.5t-172.5 -104t-241.5 -38h-524zM782 584h-231l-80 -342h242q91 0 146.5 63t55.5 164q0 60 -32 87.5t-101 27.5zM893 1151h-211
l-78 -332h211q85 0 142 60t57 155q0 117 -121 117z" />
    <glyph glyph-name="C" unicode="C" horiz-adv-x="1011" 
d="M991 248l-22 -219q-190 -54 -346 -54q-211 0 -315.5 103.5t-104.5 300.5q0 96 11.5 194t38 200.5t65.5 195.5t97.5 175.5t130.5 142.5t168 95t206 35q75 0 162.5 -15.5t137.5 -30.5l50 -15l-66 -209q-127 24 -295 24q-127 0 -223.5 -113t-144 -286.5t-47.5 -372.5
q0 -178 165 -178q71 0 154 6.5t131 13.5z" />
    <glyph glyph-name="D" unicode="D" horiz-adv-x="1239" 
d="M633 0h-500l322 1393h438q459 0 459 -424q0 -142 -26 -278.5t-83.5 -262.5t-140 -220.5t-203.5 -151t-266 -56.5zM1061 969q0 99 -56.5 138.5t-168.5 39.5h-156l-207 -901h184q84 0 154.5 51t115.5 130t76.5 178t44.5 191t13 173z" />
    <glyph glyph-name="E" unicode="E" horiz-adv-x="1017" 
d="M133 0l320 1393h817l-58 -246h-532l-76 -328h422l-57 -246h-420l-76 -327h535l-56 -246h-819z" />
    <glyph glyph-name="F" unicode="F" horiz-adv-x="976" 
d="M133 0l322 1393h802l-57 -246h-520l-96 -420h430l-60 -246h-428l-110 -481h-283z" />
    <glyph glyph-name="G" unicode="G" horiz-adv-x="1163" 
d="M774 541l55 233h412l-174 -745q-16 -6 -46 -15t-133 -24t-218 -15q-227 0 -344 110t-117 329q0 159 27.5 304t87 273.5t145.5 222.5t210 148.5t273 54.5q100 0 206.5 -20.5t163.5 -40.5l56 -21l-65 -205q-203 41 -383 41q-89 0 -163.5 -49t-122.5 -127.5t-81.5 -179.5
t-48 -202.5t-14.5 -200.5q0 -191 205 -191q31 0 63.5 2.5t49.5 4.5l16 3l71 310h-131z" />
    <glyph glyph-name="H" unicode="H" horiz-adv-x="1269" 
d="M854 0l135 590h-438l-135 -590h-283l322 1393h282l-129 -557h439l129 557h282l-321 -1393h-283z" />
    <glyph glyph-name="I" unicode="I" horiz-adv-x="548" 
d="M133 0l322 1393h282l-321 -1393h-283z" />
    <glyph glyph-name="J" unicode="J" horiz-adv-x="579" 
d="M774 1393l-258 -1117q-23 -99 -42 -161t-48 -112.5t-59.5 -75.5t-84.5 -42t-113.5 -21.5t-156.5 -4.5l47 245q47 2 69 6t44 21.5t34.5 50.5t26.5 94l259 1117h282z" />
    <glyph glyph-name="K" unicode="K" horiz-adv-x="1105" 
d="M786 0l-90 559l-155 -14l-125 -545h-283l322 1393h282l-139 -602l131 16l361 586h309l-445 -699l129 -694h-297z" />
    <glyph glyph-name="L" unicode="L" horiz-adv-x="864" 
d="M858 0h-725l322 1393h282l-264 -1147h440z" />
    <glyph glyph-name="M" unicode="M" horiz-adv-x="1615" 
d="M133 0l322 1393h438l2 -1014l463 1014h446l-321 -1393h-283l266 1147h-12l-498 -1086h-266l-2 1086h-10l-262 -1147h-283z" />
    <glyph glyph-name="N" unicode="N" horiz-adv-x="1333" 
d="M133 0l322 1393h448l74 -1092h24l248 1092h273l-322 -1393h-426l-90 1112h-25l-260 -1112h-266z" />
    <glyph glyph-name="O" unicode="O" horiz-adv-x="1259" 
d="M694 221q102 0 172 70q97 97 155 292t58 380q0 114 -43 161t-151 47q-105 0 -166 -61q-101 -100 -161 -304t-60 -376q0 -114 43.5 -161.5t152.5 -47.5zM645 -25q-209 0 -323.5 105.5t-114.5 320.5q0 268 81.5 506t237.5 373q158 137 392 137q215 0 333.5 -104t118.5 -322
q0 -182 -34.5 -348.5t-112 -313.5t-189.5 -235q-74 -58 -176 -88.5t-213 -30.5z" />
    <glyph glyph-name="P" unicode="P" horiz-adv-x="1120" 
d="M682 401h-174l-92 -401h-283l322 1393h401q226 0 328 -94t102 -300q0 -293 -161 -445.5t-443 -152.5zM565 647h154q130 0 203 91t73 257q0 78 -36.5 115t-122.5 37h-156z" />
    <glyph glyph-name="Q" unicode="Q" horiz-adv-x="1259" 
d="M645 -25q-209 0 -323.5 105.5t-114.5 320.5q0 268 81.5 506t237.5 373q158 137 392 137q215 0 333.5 -104t118.5 -322q0 -182 -34.5 -348.5t-112 -313.5t-189.5 -235q-55 -38 -69 -45l98 -276l-268 -88l-88 295q-50 -5 -62 -5zM694 221q102 0 172 70q97 97 155 292
t58 380q0 114 -43 161t-151 47q-105 0 -166 -61q-101 -100 -161 -304t-60 -376q0 -114 43.5 -161.5t152.5 -47.5z" />
    <glyph glyph-name="R" unicode="R" horiz-adv-x="1144" 
d="M805 0l-92 442h-195l-102 -442h-283l322 1393h401q220 0 325 -94t105 -304q0 -190 -87.5 -325t-223.5 -189l112 -481h-282zM995 983q0 90 -34.5 129t-120.5 39h-158l-109 -467h183q110 0 174.5 88t64.5 211z" />
    <glyph glyph-name="S" unicode="S" horiz-adv-x="1013" 
d="M1200 1339l-51 -200q-226 37 -369 37q-91 0 -142.5 -50t-51.5 -133q0 -58 33 -89t157 -87q169 -75 224 -148t55 -212q0 -231 -142.5 -356.5t-384.5 -125.5q-96 0 -202.5 21t-165.5 42l-58 21l48 203q231 -41 374 -41q122 0 183 46t61 157q0 58 -36 90t-171 94
q-143 65 -202.5 142t-59.5 211q0 198 129 327t344 129q99 0 206 -19.5t164 -39.5z" />
    <glyph glyph-name="T" unicode="T" horiz-adv-x="933" 
d="M283 1147l57 246h897l-57 -246h-310l-264 -1147h-282l264 1147h-305z" />
    <glyph glyph-name="U" unicode="U" horiz-adv-x="1218" 
d="M723 1393l-213 -920q-18 -77 -18 -135q0 -68 41.5 -92.5t125.5 -24.5q127 0 180.5 56.5t84.5 195.5l213 920h282l-213 -920q-60 -263 -193.5 -380.5t-377.5 -117.5q-198 0 -311 79t-113 237q0 100 27 227l202 875h283z" />
    <glyph glyph-name="V" unicode="V" horiz-adv-x="1136" 
d="M1149 1393h283l-631 -1393h-482l29 1393h283l-49 -1147h67z" />
    <glyph glyph-name="W" unicode="W" horiz-adv-x="1771" 
d="M356 1393h283l-86 -1133h29l462 1112h312l-68 -1112h29l459 1133h282l-596 -1393h-409l67 1012l-405 -1012h-422z" />
    <glyph glyph-name="X" unicode="X" horiz-adv-x="1064" 
d="M641 1393l100 -490l336 490h297l-512 -693l193 -700h-297l-113 498l-346 -498h-297l524 702l-184 691h299z" />
    <glyph glyph-name="Y" unicode="Y" horiz-adv-x="1032" 
d="M1354 1393l-574 -803l-139 -590h-262l139 602l-194 791h286l99 -543l346 543h299z" />
    <glyph glyph-name="Z" unicode="Z" horiz-adv-x="1003" 
d="M338 1147l57 246h856l-65 -285l-723 -813l-12 -49h536l-57 -246h-856l63 281l719 817l10 49h-528z" />
    <glyph glyph-name="bracketleft" unicode="[" horiz-adv-x="503" 
d="M383 1530h469l-57 -234h-181l-305 -1312h180l-57 -234h-463z" />
    <glyph glyph-name="backslash" unicode="\" horiz-adv-x="991" 
d="M938 0h-285l-272 1438h287z" />
    <glyph glyph-name="bracketright" unicode="]" horiz-adv-x="501" 
d="M416 -250h-469l57 234h180l305 1312h-180l58 234h462z" />
    <glyph glyph-name="asciicircum" unicode="^" 
d="M854 641l-223 444l-232 -444h-286l397 711h233l398 -711h-287z" />
    <glyph glyph-name="underscore" unicode="_" horiz-adv-x="978" 
d="M-8 -164h917l-57 -256h-918z" />
    <glyph glyph-name="grave" unicode="`" horiz-adv-x="1060" 
d="M631 1581l452 -184l-114 -203l-469 162z" />
    <glyph glyph-name="a" unicode="a" horiz-adv-x="1081" 
d="M453 -25q-149 0 -219 101t-70 272q0 88 17.5 180.5t58.5 186.5t99.5 167.5t148 120t196.5 46.5q67 0 195 -17t223 -34l94 -17l-154 -662q-13 -56 -26.5 -134.5t-21.5 -128.5l-7 -50l-272 -10q18 125 26 160q-5 -7 -15 -19.5t-41 -43.5t-63 -55t-78.5 -43.5t-90.5 -19.5z
M692 815q-59 0 -108.5 -46.5t-79.5 -118t-46 -150.5t-16 -152q0 -71 22.5 -105t82.5 -34q37 0 97 45.5t101 91.5l41 45l95 395q-136 29 -189 29z" />
    <glyph glyph-name="b" unicode="b" horiz-adv-x="1079" 
d="M844 1049q86 0 148.5 -28t95.5 -77.5t48 -105.5t15 -123q0 -157 -36.5 -292t-103.5 -234t-168.5 -155.5t-224.5 -56.5q-98 0 -223 17t-201 34l-75 17l319 1389h275l-113 -490q14 12 37.5 29.5t87.5 46.5t119 29zM614 211q66 0 118.5 51.5t80.5 128.5t42.5 153.5
t14.5 141.5q0 129 -108 129q-40 0 -94 -25.5t-88 -51.5l-33 -25l-111 -482q90 -20 178 -20z" />
    <glyph glyph-name="c" unicode="c" horiz-adv-x="837" 
d="M702 1049q64 0 140.5 -16t121.5 -32l44 -16l-70 -201q-158 27 -248 27q-60 0 -108.5 -38t-77 -100t-43.5 -134.5t-15 -147.5q0 -89 37 -133.5t119 -44.5q39 0 94 4t90 8l35 4l-22 -202q-17 -6 -46 -14.5t-107.5 -23t-143.5 -14.5q-151 0 -242.5 94.5t-91.5 262.5
q0 151 33.5 280t98.5 227t168 154t234 56z" />
    <glyph glyph-name="d" unicode="d" horiz-adv-x="1081" 
d="M1300 1434l-331 -1434h-267l19 106q-5 -5 -13.5 -14t-36 -31.5t-56.5 -40t-72 -31.5t-84 -14q-146 0 -220.5 94.5t-74.5 268.5q0 101 20.5 201t63.5 192t103 162t145 112t184 42q38 0 99.5 -10.5t104.5 -21.5l42 -11l100 430h274zM778 356l99 428q-119 29 -197 29
q-55 0 -101.5 -47.5t-75.5 -120t-45 -153t-16 -152.5q0 -59 26 -95t79 -36q34 0 91.5 36.5t98.5 73.5z" />
    <glyph glyph-name="e" unicode="e" horiz-adv-x="974" 
d="M590 209q62 0 147 6.5t139 13.5l54 7l-31 -203q-21 -6 -58 -16t-139 -26t-190 -16q-177 0 -261.5 84.5t-84.5 264.5q0 114 19.5 218t63.5 197t108 160.5t159 107.5t211 40q358 0 358 -306q0 -100 -32.5 -166.5t-105 -105t-175 -54.5t-254.5 -16h-72q-6 -24 -6 -69
q0 -59 42.5 -90t107.5 -31zM477 602h84q142 0 198 31t56 104q0 48 -25 68t-77 20q-183 0 -236 -223z" />
    <glyph glyph-name="f" unicode="f" horiz-adv-x="671" 
d="M614 791l-184 -791l-129 -432h-248l287 1218h-94l57 238h88l10 41q49 215 128.5 304t244.5 89q42 0 90.5 -12t76.5 -24l28 -11l-49 -201q-73 15 -134 15q-20 0 -36.5 -9.5t-26.5 -22.5t-20 -37.5t-14.5 -42.5l-12.5 -50l-10 -39h215l-58 -233h-209z" />
    <glyph glyph-name="g" unicode="g" horiz-adv-x="991" 
d="M463 -471q-445 0 -445 281q0 51 21.5 94.5t62 77.5t77.5 56.5t89 47.5q-24 24 -32.5 47.5t-8.5 61.5q0 26 12.5 55.5t30.5 53.5t36.5 44t31.5 32l12 11q-68 40 -103.5 99.5t-35.5 156.5q0 175 116.5 288.5t307.5 113.5q44 0 106 -9.5t102 -18.5l40 -9l299 12l-52 -221
h-118q8 -46 8 -105q0 -157 -121.5 -266.5t-306.5 -109.5q-23 0 -45 2.5t-33 5.5l-10 2q-31 -41 -31 -74q0 -25 39.5 -37t153.5 -28q290 -42 290 -259q0 -183 -132 -294t-361 -111zM559 -18q-158 26 -174 30q-42 -23 -79.5 -62.5t-37.5 -76.5q0 -49 46 -82t143 -33
q241 0 241 144q0 38 -32 52.5t-107 27.5zM606 545q71 0 116.5 48t45.5 118q0 114 -143 114q-72 0 -117 -47.5t-45 -118.5q0 -114 143 -114z" />
    <glyph glyph-name="h" unicode="h" horiz-adv-x="1050" 
d="M387 0h-274l329 1434h275l-115 -506q5 5 14 13t37 29t56.5 37t69.5 29t79 13q131 0 190.5 -79t59.5 -210q0 -71 -43 -258l-115 -502h-274l110 481q37 157 37 211q0 63 -16 91t-66 28q-28 0 -77 -30.5t-84 -61.5l-35 -31z" />
    <glyph glyph-name="i" unicode="i" horiz-adv-x="497" 
d="M113 0l235 1024h275l-236 -1024h-274zM371 1130l65 281h277l-64 -281h-278z" />
    <glyph glyph-name="j" unicode="j" horiz-adv-x="497" 
d="M113 0l235 1024h275l-236 -1024q-14 -61 -23 -95.5t-24.5 -75t-27.5 -61.5t-38 -50t-50.5 -45.5t-70 -42.5t-91.5 -47.5t-119 -53.5l-86 219q87 45 126.5 68t69.5 53t39 54.5t21 76.5zM367 1112l65 281h277l-64 -281h-278z" />
    <glyph glyph-name="k" unicode="k" horiz-adv-x="956" 
d="M387 0h-274l329 1434h275l-185 -797l70 14l260 371h301l-356 -492l135 -530h-280l-99 424l-82 -12z" />
    <glyph glyph-name="l" unicode="l" horiz-adv-x="499" 
d="M113 0l329 1434h275l-330 -1434h-274z" />
    <glyph glyph-name="m" unicode="m" horiz-adv-x="1589" 
d="M948 0h-274l110 481q37 157 37 211q0 62 -17.5 90.5t-66.5 28.5q-29 0 -77 -30.5t-82 -61.5l-33 -31l-158 -688h-274l235 1024h262l-10 -98l13.5 13.5t36.5 29.5t57.5 37t73 29.5t85.5 13.5q49 0 88.5 -15t62 -36.5t37.5 -43t20 -36.5l5 -15q7 6 18.5 16t48 35t73 44
t86.5 35t94 16q68 0 117 -22t76.5 -63t40 -91t12.5 -113q0 -88 -39 -258l-115 -502h-274l114 481q37 157 37 203q0 66 -16 96.5t-60 30.5q-34 0 -83.5 -29.5t-82.5 -59.5l-32 -30q-15 -122 -31 -190z" />
    <glyph glyph-name="n" unicode="n" horiz-adv-x="1050" 
d="M387 0h-274l235 1024h262l-12 -100q5 5 14.5 13.5t38 30t58 38t70.5 30t79 13.5q131 0 190.5 -79t59.5 -210q0 -71 -43 -258l-115 -502h-274l110 481q37 157 37 211q0 64 -15.5 91.5t-68.5 27.5q-29 0 -77.5 -30.5t-82.5 -61.5l-34 -31z" />
    <glyph glyph-name="o" unicode="o" horiz-adv-x="1015" 
d="M682 1047q403 0 403 -388q0 -96 -20.5 -192t-63.5 -185t-103 -157t-145.5 -109t-185.5 -41q-403 0 -403 387q0 95 22 192t66.5 185.5t105 157t145 109.5t179.5 41zM567 209q74 0 132 70t86 172.5t28 212.5q0 71 -33.5 110t-97.5 39q-74 0 -132 -70t-86 -172.5t-28 -212.5
q0 -71 33.5 -110t97.5 -39z" />
    <glyph glyph-name="p" unicode="p" horiz-adv-x="1079" 
d="M14 -430l334 1454h268l-20 -106q5 5 14.5 14t38 31.5t58 40t70.5 31.5t79 14q149 0 223 -95.5t74 -253.5q0 -133 -33.5 -259.5t-96 -231t-163 -168.5t-223.5 -64q-43 0 -105 10.5t-102 21.5l-41 11l-104 -450h-271zM770 815q-34 0 -91.5 -36.5t-98.5 -73.5l-41 -37
l-99 -428q119 -29 197 -29q55 0 101.5 47.5t75 120t44.5 153t16 152.5q0 59 -25.5 95t-78.5 36z" />
    <glyph glyph-name="q" unicode="q" horiz-adv-x="1077" 
d="M459 -25q-144 0 -219.5 94t-75.5 263q0 134 34.5 260.5t98 228.5t163.5 164t220 62q77 0 205.5 -17t218.5 -34l90 -17l-324 -1409h-274l125 539q-5 -5 -13.5 -14.5t-36 -32.5t-56.5 -40.5t-72 -32t-84 -14.5zM678 813q-68 0 -123.5 -77t-84 -184t-28.5 -212q0 -59 26 -95
t79 -36q34 0 91.5 36.5t98.5 73.5l41 37l99 428q-121 29 -199 29z" />
    <glyph glyph-name="r" unicode="r" horiz-adv-x="684" 
d="M113 0l235 1024h273l-37 -147q7 6 19 16.5t49 37.5t73.5 49t86.5 42.5t93 26.5l-80 -287q-44 -14 -116 -43t-122 -51l-50 -23l-150 -645h-274z" />
    <glyph glyph-name="s" unicode="s" horiz-adv-x="884" 
d="M1012 983l-49 -203q-212 33 -345 33q-60 0 -93 -28.5t-33 -71.5q0 -33 29 -51.5t116 -45.5q44 -14 70.5 -23t59 -23t51 -26.5t38.5 -30.5t30 -39t16.5 -48t6.5 -61q0 -192 -125.5 -291t-334.5 -99q-88 0 -177 17.5t-134 35.5l-44 17l51 201q197 -37 334 -37
q150 0 150 100q0 26 -28 41.5t-99 36.5q-145 41 -215 96t-70 158q0 128 61 222t156.5 139t208.5 45q96 0 188.5 -16t136.5 -32z" />
    <glyph glyph-name="t" unicode="t" horiz-adv-x="673" 
d="M811 791h-213l-94 -410q-17 -74 -17 -115q0 -30 14 -43.5t46 -13.5q24 0 58.5 2.5t57.5 4.5l23 3l-22 -196q-12 -5 -33.5 -13t-82 -21.5t-114.5 -13.5q-111 0 -171 63t-60 159q0 81 30 209l91 385h-111l61 233h105l59 262h275l-60 -262h215z" />
    <glyph glyph-name="u" unicode="u" horiz-adv-x="1050" 
d="M899 1024h275l-236 -1024h-262l12 100q-5 -5 -14.5 -13.5t-38 -30t-58 -38t-70.5 -30t-79 -13.5q-131 0 -190.5 79t-59.5 210q0 77 43 258l115 502h274l-110 -481q-37 -157 -37 -211q0 -62 17.5 -90.5t66.5 -28.5q29 0 77.5 30.5t82.5 61.5l34 31z" />
    <glyph glyph-name="v" unicode="v" horiz-adv-x="948" 
d="M258 1024h268l-28 -797h37l350 797h276l-481 -1024h-430z" />
    <glyph glyph-name="w" unicode="w" horiz-adv-x="1560" 
d="M276 1024h277l-66 -791h48l325 771h311l-41 -771h48l305 791h276l-418 -1024h-456l39 637l-258 -637h-449z" />
    <glyph glyph-name="x" unicode="x" horiz-adv-x="880" 
d="M254 1024h278l80 -313l213 313h279l-404 -532l164 -492h-278l-80 301l-209 -301h-285l402 512z" />
    <glyph glyph-name="y" unicode="y" horiz-adv-x="950" 
d="M258 1024h268l-28 -797h30l357 797h276l-680 -1454h-272l211 430h-170z" />
    <glyph glyph-name="z" unicode="z" horiz-adv-x="847" 
d="M250 791l59 233h707l-58 -227l-516 -564h394l-60 -233h-706l51 229l514 562h-385z" />
    <glyph glyph-name="braceleft" unicode="{" horiz-adv-x="589" 
d="M543 449q0 -39 -46 -195t-46 -193q0 -46 30 -72t88 -26l-63 -235q-150 0 -238 67.5t-88 188.5q0 42 43 203t43 202q0 102 -137 174l49 195q66 17 107 34.5t64 41t32.5 44t19.5 58.5q6 22 21 96.5t27 138.5l12 64q51 171 159.5 241t317.5 78l-45 -235q-84 -7 -124.5 -44.5
t-57.5 -103.5l-49 -258q-29 -117 -83 -175.5t-161 -96.5q66 -37 95.5 -79.5t29.5 -112.5z" />
    <glyph glyph-name="bar" unicode="|" horiz-adv-x="686" 
d="M322 -430v1864h274v-1864h-274z" />
    <glyph glyph-name="braceright" unicode="}" horiz-adv-x="587" 
d="M340 827q0 39 46 195t46 192q0 46 -30.5 72.5t-88.5 26.5l64 235q150 0 237.5 -67.5t87.5 -188.5q0 -42 -43 -203t-43 -202q0 -101 138 -174l-49 -195q-53 -14 -90 -29t-59.5 -29t-37.5 -34.5t-22 -38t-15 -47.5q-6 -22 -21 -96.5t-26 -138.5l-12 -64
q-52 -171 -160.5 -241.5t-316.5 -78.5l45 236q84 7 125 44t57 103l49 258q29 117 83 176t161 97q-66 37 -95.5 79.5t-29.5 112.5z" />
    <glyph glyph-name="asciitilde" unicode="~" 
d="M1122 672l17 -219q-4 -4 -12.5 -11t-33.5 -25.5t-51 -32t-63.5 -25t-71.5 -11.5q-60 0 -221.5 45t-196.5 45q-44 0 -99.5 -20t-89.5 -40l-34 -20l-20 220q14 12 39 29.5t91.5 47t121.5 29.5q57 0 212.5 -45t202.5 -45q36 0 88 19.5t87 38.5z" />
    <glyph glyph-name="exclamdown" unicode="&#xa1;" horiz-adv-x="329" 
d="M412 496l-195 -906h-293l230 906h258zM541 1024l-72 -313h-279l72 313h279z" />
    <glyph glyph-name="cent" unicode="&#xa2;" 
d="M514 -152l47 211q-73 5 -126.5 33.5t-82.5 73t-42.5 102.5t-10.5 119t18 125q53 211 172.5 323t286.5 123l47 209h221l-53 -215l144 -20l-70 -230q-145 7 -219 7q-121 0 -179.5 -44t-86.5 -153q-26 -107 11 -153t167 -46l221 9l-43 -230q-76 -12 -154 -18l-51 -226h-217z
" />
    <glyph glyph-name="sterling" unicode="&#xa3;" 
d="M1278 1339l-64 -206q-128 16 -210 16q-38 0 -63.5 -12.5t-43.5 -43.5t-27.5 -60t-23.5 -85l-10 -41h321l-55 -233h-320l-102 -441h188l140 37l-7 -235l-151 -35h-696l53 233h194l101 441h-164l55 233h162l18 74q57 226 146 318t266 92q45 0 118.5 -13t124.5 -26z" />
    <glyph glyph-name="currency" unicode="&#xa4;" 
d="M1018 4l-150 150q-83 -40 -174.5 -40t-173.5 40l-149 -150l-189 189l150 149q-40 82 -40 173.5t40 174.5l-150 150l189 188l149 -149q82 38 173.5 38t174.5 -38l150 149l188 -188l-149 -150q38 -83 38 -174.5t-38 -173.5l149 -149zM586 408q44 -44 108.5 -44t108.5 44
t44 108.5t-44 108.5t-108.5 44t-108.5 -44t-44 -108.5t44 -108.5z" />
    <glyph glyph-name="yen" unicode="&#xa5;" 
d="M285 565l53 242h143l-221 545h305l201 -473l364 473h365l-438 -545h145l-57 -242h-271l-18 -22l-12 -45h286l-55 -242h-287l-59 -256h-280l61 256h-299l57 242h297l10 45l-6 22h-284z" />
    <glyph glyph-name="brokenbar" unicode="&#xa6;" horiz-adv-x="686" 
d="M322 1434h274v-762h-274v762zM322 348h274v-778h-274v778z" />
    <glyph glyph-name="section" unicode="&#xa7;" horiz-adv-x="997" 
d="M1163 1255l-61 -227q-213 33 -303 33q-105 0 -162 -34t-57 -95q0 -17 6 -31.5t21.5 -26t27.5 -19t39.5 -16t41.5 -12t48.5 -11.5t46.5 -11q73 -17 123 -48.5t73.5 -70t32.5 -72t9 -69.5q0 -46 -16 -93t-48.5 -95t-54 -75t-60.5 -71q35 -55 35 -117q0 -32 -4 -66.5
t-17.5 -83t-35.5 -92t-62.5 -88t-93.5 -76.5t-133.5 -52.5t-177.5 -20.5q-60 0 -147 11.5t-144 22.5l-57 11l78 227q203 -28 307 -28q99 0 159 33t60 90q0 18 -2.5 30t-12 22.5t-19 16.5t-32.5 14t-42 13.5t-58 17t-72 21.5q-129 40 -184 101t-55 155q0 192 196 336
q-41 37 -41 168q0 51 19.5 107.5t62.5 114t102.5 103t148 74.5t190.5 29q60 0 141.5 -12.5t132.5 -24.5zM635 580q-109 27 -125 36q-20 -25 -45 -80.5t-25 -93.5q0 -8 2 -15t5 -12t9.5 -10t11 -8t14.5 -7.5t15.5 -6.5t18.5 -7t19 -7q25 -10 78.5 -30t76.5 -30
q23 23 48.5 79.5t25.5 94.5q0 36 -29.5 56.5t-99.5 40.5z" />
    <glyph glyph-name="dieresis" unicode="&#xa8;" horiz-adv-x="1052" 
d="M440 1231l64 276h227l-65 -276h-226zM838 1231l63 276h227l-65 -276h-225z" />
    <glyph glyph-name="copyright" unicode="&#xa9;" horiz-adv-x="1312" 
d="M297 889q0 252 159.5 416.5t405.5 164.5q167 0 297 -80t198 -211.5t68 -289.5q0 -252 -155.5 -417t-411.5 -165q-158 0 -287 76.5t-201.5 210t-72.5 295.5zM424 889q0 -190 124.5 -324.5t309.5 -134.5q125 0 226.5 62t157.5 167t56 230q0 124 -56.5 229t-158 167.5
t-223.5 62.5q-185 0 -310.5 -134.5t-125.5 -324.5zM1036 756l15 -168q-6 -4 -19 -10t-57.5 -16.5t-95.5 -10.5q-95 0 -149.5 28.5t-84 105t-29.5 214.5q0 183 63 254.5t208 71.5q44 0 85 -7.5t60 -15.5l19 -8l-15 -176q-71 12 -137 12q-40 0 -56 -28.5t-16 -102.5
q0 -82 17 -118t55 -36q29 0 63.5 2.5t53.5 5.5z" />
    <glyph glyph-name="ordfeminine" unicode="&#xaa;" horiz-adv-x="673" 
d="M889 1114l-66 -289q12 -12 33 -16l-43 -168q-97 0 -149.5 9t-68 21.5t-26.5 37.5q-11 -7 -31 -18t-72 -29.5t-95 -18.5q-105 0 -148 60.5t-18 164.5q24 103 94 152t209 55l131 6l12 45q2 15 -17.5 23t-62.5 8q-40 0 -108 -3.5t-116 -7.5l-48 -3l29 153q18 6 48 15
t110.5 24t144.5 15q51 0 89 -4t73 -14t55.5 -27.5t35.5 -43.5t14 -62.5t-9 -84.5zM606 938l-90 -6q-69 -6 -80 -55q-4 -29 8 -41.5t45 -12.5q18 0 43.5 8.5t41.5 16.5l16 8z" />
    <glyph glyph-name="guillemotleft" unicode="&#xab;" horiz-adv-x="987" 
d="M1180 893l-76 -268l-232 -133l164 -158l-67 -246l-348 346l47 125zM668 893l-76 -268l-232 -133l164 -158l-67 -246l-348 346l47 125z" />
    <glyph glyph-name="logicalnot" unicode="&#xac;" 
d="M231 733h893v-520h-245v274h-648v246z" />
    <glyph glyph-name="registered" unicode="&#xae;" horiz-adv-x="1312" 
d="M297 889q0 252 159.5 416.5t403.5 164.5q168 0 298.5 -80t198.5 -211.5t68 -289.5q0 -123 -40 -230t-112.5 -185t-179 -122.5t-233.5 -44.5q-159 0 -288.5 76.5t-202 210t-72.5 295.5zM424 889q0 -123 57.5 -228.5t158 -168t220.5 -62.5q188 0 313 134t125 325
q0 124 -56.5 229t-158 167.5t-223.5 62.5q-184 0 -310 -135t-126 -324zM928 565l-58 191h-59v-191h-197v645h279q107 0 170 -52t63 -163q0 -80 -16.5 -123.5t-60.5 -80.5l84 -226h-205zM809 1063v-162h57q33 0 51.5 22t18.5 58q0 38 -18 60t-54 22h-55z" />
    <glyph glyph-name="macron" unicode="&#xaf;" horiz-adv-x="946" 
d="M444 1284l52 223h632l-53 -223h-631z" />
    <glyph glyph-name="degree" unicode="&#xb0;" 
d="M522 1110q0 136 85 221.5t222 85.5t222.5 -85.5t85.5 -221.5t-85.5 -220.5t-222.5 -84.5t-222 84.5t-85 220.5zM676 1110q0 -69 42 -112.5t111 -43.5t113.5 43.5t44.5 112.5t-44.5 113.5t-113.5 44.5q-68 0 -110.5 -44t-42.5 -114z" />
    <glyph glyph-name="plusminus" unicode="&#xb1;" 
d="M203 553v246h346v221h246v-221h350v-246h-350v-205h-246v205h-346zM203 285h942v-246h-942v246z" />
    <glyph glyph-name="twosuperior" unicode="&#xb2;" horiz-adv-x="573" 
d="M745 979h-473l45 184l181 121q62 41 89.5 67t33.5 50q4 18 -12 24.5t-56 6.5q-20 0 -60 -3t-70 -7l-30 -3l43 203q154 18 246 18q126 0 165 -47t11 -157q-17 -69 -54.5 -114.5t-111.5 -90.5l-92 -57h193z" />
    <glyph glyph-name="threesuperior" unicode="&#xb3;" horiz-adv-x="573" 
d="M432 1622q143 18 225 18q124 0 175 -44.5t28 -137.5q-24 -106 -94 -143q64 -31 33 -150q-26 -104 -102 -156.5t-191 -52.5q-44 0 -105 4t-100 8l-39 5l60 190q122 -12 190 -12q33 0 48.5 7.5t19.5 25.5t-7 23t-41 5h-135l43 174h131q41 0 50 29q4 18 -8.5 24.5t-39.5 6.5
q-34 0 -78 -2.5t-71 -5.5l-27 -2z" />
    <glyph glyph-name="acute" unicode="&#xb4;" horiz-adv-x="1144" 
d="M520 1180l-20 219l540 186l21 -246z" />
    <glyph glyph-name="mu" unicode="&#xb5;" 
d="M55 -430l207 905l6 21q0 6 4 18l19 80l98 430h275l-101 -430h2l-30 -135q-19 -93 -19 -127q0 -62 17.5 -90.5t66.5 -28.5q29 0 78 30.5t83 61.5l34 31l157 688h275l-236 -1024h-262l12 100q-5 -5 -14.5 -13.5t-38 -30t-58 -38t-70.5 -30t-79 -13.5q-29 0 -57 7l-94 -412
h-275z" />
    <glyph glyph-name="paragraph" unicode="&#xb6;" horiz-adv-x="1157" 
d="M762 0l289 1217h-117l-291 -1217h-221l149 627q-78 1 -135 27t-88.5 71t-46 98.5t-14.5 118.5q0 92 33.5 180t93 157.5t148 112t190.5 42.5h641l-52 -217h-69l-291 -1217h-219z" />
    <glyph glyph-name="periodcentered" unicode="&#xb7;" horiz-adv-x="309" 
d="M115 424l78 346h276l-78 -346h-276z" />
    <glyph glyph-name="cedilla" unicode="&#xb8;" horiz-adv-x="1619" 
d="M1034 -254q-25 -105 -92 -160t-172 -55q-37 0 -80 6t-68 11l-24 6l41 165q61 -2 94 -2q74 0 86 50q7 25 -8.5 32.5t-54.5 7.5h-45l45 203h106l-22 -78h12q106 0 156 -41t26 -145z" />
    <glyph glyph-name="onesuperior" unicode="&#xb9;" horiz-adv-x="573" 
d="M387 1464l254 154h197l-158 -639h-217l98 399l-112 -65z" />
    <glyph glyph-name="ordmasculine" unicode="&#xba;" horiz-adv-x="702" 
d="M657 1352q62 0 118.5 -13.5t102.5 -47t58 -81.5q20 -88 -6 -198q-50 -206 -151.5 -287.5t-289.5 -81.5q-132 0 -203.5 69t-64.5 189q3 46 19 113q45 183 145.5 260.5t271.5 77.5zM539 840q60 0 94 36t61 132q11 46 11 73q0 82 -89 82q-57 0 -89 -32t-52 -111
q-16 -62 -16 -100q0 -42 17.5 -61t62.5 -19z" />
    <glyph glyph-name="guillemotright" unicode="&#xbb;" horiz-adv-x="970" 
d="M530 88l76 268l232 133l-164 158l67 246l349 -346l-48 -125zM39 88l76 268l231 133l-164 158l68 246l348 -346l-47 -125z" />
    <glyph glyph-name="onequarter" unicode="&#xbc;" horiz-adv-x="1298" 
d="M324 1464l254 154h196l-158 -639h-217l99 399l-113 -65zM467 -49l-258 90l883 1429l258 -90zM1057 0l16 72h-276l45 180l182 387h242l-199 -373h55l76 185h186l-47 -185h23l-49 -194h-23l-16 -72h-215z" />
    <glyph glyph-name="onehalf" unicode="&#xbd;" horiz-adv-x="1325" 
d="M324 1464l254 154h196l-158 -639h-217l99 399l-113 -65zM467 -49l-258 90l883 1429l258 -90zM1315 0h-473l45 184l180 121q62 41 89.5 67t33.5 50q4 18 -12 24.5t-56 6.5q-20 0 -60 -3.5t-70 -6.5l-29 -3l43 203q153 19 245 19q126 0 165 -47.5t11 -157.5
q-17 -69 -54 -115t-111 -90l-93 -57h193z" />
    <glyph glyph-name="threequarters" unicode="&#xbe;" horiz-adv-x="1292" 
d="M391 1622q143 18 225 18q124 0 175 -44.5t28 -137.5q-24 -106 -94 -143q64 -31 33 -150q-26 -104 -102 -156.5t-191 -52.5q-44 0 -105 4t-100 8l-39 5l60 190q122 -12 190 -12q33 0 48.5 7.5t19.5 25.5t-6.5 23t-40.5 5h-136l43 174h131q41 0 50 29q4 18 -8.5 24.5
t-39.5 6.5q-34 0 -78 -2.5t-71 -5.5l-27 -2zM461 -49l-258 90l882 1429l258 -90zM1051 0l16 72h-276l45 180l182 387h242l-199 -373h55l76 185h186l-47 -185h23l-49 -194h-23l-16 -72h-215z" />
    <glyph glyph-name="questiondown" unicode="&#xbf;" horiz-adv-x="884" 
d="M53 -74q0 73 15.5 128.5t55.5 107.5t93.5 97t144.5 108q111 76 127 149l19 82h258q0 -100 -16 -184q-17 -101 -193 -226q-120 -85 -166.5 -132.5t-46.5 -100.5q0 -64 35.5 -83t114.5 -19q64 0 137 6t114 12l41 6l-28 -215q-185 -55 -328 -55q-377 0 -377 319zM877 1024
l-78 -344h-279l78 344h279z" />
    <glyph glyph-name="Agrave" unicode="&#xc0;" horiz-adv-x="1128" 
d="M784 1946l455 -187l-125 -215l-465 158zM27 0l626 1393h488l-43 -1393h-283l8 242h-405l-109 -242h-282zM819 1147l-295 -660h310l28 660h-43z" />
    <glyph glyph-name="Aacute" unicode="&#xc1;" horiz-adv-x="1128" 
d="M725 1567l-20 217l540 186l21 -246zM27 0l626 1393h488l-43 -1393h-283l8 242h-405l-109 -242h-282zM819 1147l-295 -660h310l28 660h-43z" />
    <glyph glyph-name="Acircumflex" unicode="&#xc2;" horiz-adv-x="1128" 
d="M559 1595l361 312h163l197 -312h-250l-53 113l-127 -113h-291zM27 0l626 1393h488l-43 -1393h-283l8 242h-405l-109 -242h-282zM819 1147l-295 -660h310l28 660h-43z" />
    <glyph glyph-name="Atilde" unicode="&#xc3;" horiz-adv-x="1128" 
d="M1292 1917l4 -193q-5 -5 -14.5 -14t-37.5 -31t-55 -39t-62 -31t-64 -14q-54 0 -163 44t-144 44q-23 0 -66 -19.5t-74 -39.5l-32 -20l-9 190q6 5 16 14t39.5 31.5t57 40t63 31.5t62.5 14q53 0 117 -21.5t114.5 -43t69.5 -21.5q23 0 67.5 19.5t77.5 39.5zM27 0l626 1393
h488l-43 -1393h-283l8 242h-405l-109 -242h-282zM819 1147l-295 -660h310l28 660h-43z" />
    <glyph glyph-name="Adieresis" unicode="&#xc4;" horiz-adv-x="1128" 
d="M631 1614l63 276h228l-66 -276h-225zM1038 1614l64 276h227l-67 -276h-224zM27 0l626 1393h488l-43 -1393h-283l8 242h-405l-109 -242h-282zM819 1147l-295 -660h310l28 660h-43z" />
    <glyph glyph-name="Aring" unicode="&#xc5;" horiz-adv-x="1128" 
d="M27 0l614 1364q-9 44 6 104q30 120 117.5 180t210.5 60q117 0 177.5 -59.5t31.5 -180.5q-15 -58 -45 -102l-41 -1366h-283l8 242h-405l-109 -242h-282zM819 1147l-295 -660h310l28 660h-43zM823 1468q-6 -29 15 -46t61 -17q42 0 71.5 17t35.5 46q8 34 -17.5 49t-58.5 15
q-41 0 -70.5 -17.5t-36.5 -46.5z" />
    <glyph glyph-name="AE" unicode="&#xc6;" horiz-adv-x="1544" 
d="M641 0l57 244h-292l-109 -244h-268l630 1413h1145l-61 -268l-565 4l-78 -326h450l-59 -256h-453l-71 -301h565l-59 -266h-832zM805 1147l-281 -641h238l149 641h-106z" />
    <glyph glyph-name="Ccedilla" unicode="&#xc7;" horiz-adv-x="1011" 
d="M991 248l-22 -219q-190 -54 -346 -54h-21l-12 -43h12q106 0 156 -41t26 -145q-25 -105 -92 -160t-172 -55q-37 0 -80 6t-68 11l-24 6l41 165q61 -2 94 -2q74 0 86 50q7 25 -8.5 32.5t-54.5 7.5h-45l39 179q-297 55 -297 393q0 96 11.5 194t38 200.5t65.5 195.5
t97.5 175.5t130.5 142.5t168 95t206 35q75 0 162.5 -15.5t137.5 -30.5l50 -15l-66 -209q-127 24 -295 24q-127 0 -223.5 -113t-144 -286.5t-47.5 -372.5q0 -178 165 -178q71 0 154 6.5t131 13.5z" />
    <glyph glyph-name="Egrave" unicode="&#xc8;" horiz-adv-x="1017" 
d="M688 1946l455 -187l-125 -215l-465 158zM133 0l320 1393h817l-58 -246h-532l-76 -328h422l-57 -246h-420l-76 -327h535l-56 -246h-819z" />
    <glyph glyph-name="Eacute" unicode="&#xc9;" horiz-adv-x="1017" 
d="M715 1567l-21 217l541 186l20 -246zM133 0l320 1393h817l-58 -246h-532l-76 -328h422l-57 -246h-420l-76 -327h535l-56 -246h-819z" />
    <glyph glyph-name="Ecircumflex" unicode="&#xca;" horiz-adv-x="1017" 
d="M532 1602l361 311h164l196 -311h-249l-54 112l-127 -112h-291zM133 0l320 1393h817l-58 -246h-532l-76 -328h422l-57 -246h-420l-76 -327h535l-56 -246h-819z" />
    <glyph glyph-name="Edieresis" unicode="&#xcb;" horiz-adv-x="1017" 
d="M588 1614l63 276h228l-66 -276h-225zM995 1614l64 276h227l-67 -276h-224zM133 0l320 1393h817l-58 -246h-532l-76 -328h422l-57 -246h-420l-76 -327h535l-56 -246h-819z" />
    <glyph glyph-name="Igrave" unicode="&#xcc;" horiz-adv-x="548" 
d="M430 1946l455 -187l-125 -215l-465 158zM133 0l322 1393h282l-321 -1393h-283z" />
    <glyph glyph-name="Iacute" unicode="&#xcd;" horiz-adv-x="548" 
d="M469 1567l-20 217l540 186l21 -246zM133 0l322 1393h282l-321 -1393h-283z" />
    <glyph glyph-name="Icircumflex" unicode="&#xce;" horiz-adv-x="548" 
d="M270 1602l361 311h164l196 -311h-250l-53 112l-127 -112h-291zM133 0l322 1393h282l-321 -1393h-283z" />
    <glyph glyph-name="Idieresis" unicode="&#xcf;" horiz-adv-x="548" 
d="M324 1638l63 277h227l-65 -277h-225zM731 1638l64 277h227l-68 -277h-223zM133 0l322 1393h282l-321 -1393h-283z" />
    <glyph glyph-name="Eth" unicode="&#xd0;" horiz-adv-x="1255" 
d="M649 0h-499l129 563h-109l59 279h115l127 551h438q459 0 459 -424q0 -142 -26 -278.5t-83.5 -262.5t-140 -220.5t-203.5 -151t-266 -56.5zM1077 969q0 99 -56.5 138.5t-168.5 39.5h-156l-69 -305h223l-62 -279h-227l-72 -317h185q84 0 154.5 51t115 130t76 178t44.5 191
t13 173z" />
    <glyph glyph-name="Ntilde" unicode="&#xd1;" horiz-adv-x="1333" 
d="M1382 1915l4 -193q-5 -5 -14.5 -14t-37.5 -31t-55 -39t-62 -31t-64 -14q-54 0 -163 44t-144 44q-23 0 -66 -19.5t-74 -39.5l-32 -20l-8 190q6 5 16 14t39 31.5t56.5 40t63 31.5t62.5 14q53 0 117 -21.5t114.5 -43t69.5 -21.5q23 0 67.5 19.5t77.5 39.5zM133 0l322 1393
h448l74 -1092h24l248 1092h273l-322 -1393h-426l-90 1112h-25l-260 -1112h-266z" />
    <glyph glyph-name="Ograve" unicode="&#xd2;" horiz-adv-x="1259" 
d="M811 1946l455 -187l-125 -215l-465 158zM694 221q102 0 172 70q97 97 155 292t58 380q0 114 -43 161t-151 47q-105 0 -166 -61q-101 -100 -161 -304t-60 -376q0 -114 43.5 -161.5t152.5 -47.5zM645 -25q-209 0 -323.5 105.5t-114.5 320.5q0 268 81.5 506t237.5 373
q158 137 392 137q215 0 333.5 -104t118.5 -322q0 -182 -34.5 -348.5t-112 -313.5t-189.5 -235q-74 -58 -176 -88.5t-213 -30.5z" />
    <glyph glyph-name="Oacute" unicode="&#xd3;" horiz-adv-x="1259" 
d="M694 221q102 0 172 70q97 97 155 292t58 380q0 114 -43 161t-151 47q-105 0 -166 -61q-101 -100 -161 -304t-60 -376q0 -114 43.5 -161.5t152.5 -47.5zM645 -25q-209 0 -323.5 105.5t-114.5 320.5q0 268 81.5 506t237.5 373q158 137 392 137q215 0 333.5 -104t118.5 -322
q0 -182 -34.5 -348.5t-112 -313.5t-189.5 -235q-74 -58 -176 -88.5t-213 -30.5zM795 1567l-21 217l541 186l20 -246z" />
    <glyph glyph-name="Ocircumflex" unicode="&#xd4;" horiz-adv-x="1259" 
d="M694 221q102 0 172 70q97 97 155 292t58 380q0 114 -43 161t-151 47q-105 0 -166 -61q-101 -100 -161 -304t-60 -376q0 -114 43.5 -161.5t152.5 -47.5zM645 -25q-209 0 -323.5 105.5t-114.5 320.5q0 268 81.5 506t237.5 373q158 137 392 137q215 0 333.5 -104t118.5 -322
q0 -182 -34.5 -348.5t-112 -313.5t-189.5 -235q-74 -58 -176 -88.5t-213 -30.5zM633 1595l360 312h164l197 -312h-250l-53 113l-127 -113h-291z" />
    <glyph glyph-name="Otilde" unicode="&#xd5;" horiz-adv-x="1259" 
d="M1389 1915l4 -193q-5 -5 -14.5 -14t-38 -31t-55.5 -39t-62 -31t-64 -14q-54 0 -163 44t-144 44q-23 0 -66 -19.5t-74 -39.5l-32 -20l-8 190q6 5 16 14t39 31.5t56.5 40t63 31.5t62.5 14q53 0 117 -21.5t114.5 -43t69.5 -21.5q23 0 67.5 19.5t78.5 39.5zM694 221
q102 0 172 70q97 97 155 292t58 380q0 114 -43 161t-151 47q-105 0 -166 -61q-101 -100 -161 -304t-60 -376q0 -114 43.5 -161.5t152.5 -47.5zM645 -25q-209 0 -323.5 105.5t-114.5 320.5q0 268 81.5 506t237.5 373q158 137 392 137q215 0 333.5 -104t118.5 -322
q0 -182 -34.5 -348.5t-112 -313.5t-189.5 -235q-74 -58 -176 -88.5t-213 -30.5z" />
    <glyph glyph-name="Odieresis" unicode="&#xd6;" horiz-adv-x="1259" 
d="M657 1599l64 277h248l-66 -277h-246zM1075 1599l64 277h247l-65 -277h-246zM694 221q102 0 172 70q97 97 155 292t58 380q0 114 -43 161t-151 47q-105 0 -166 -61q-101 -100 -161 -304t-60 -376q0 -114 43.5 -161.5t152.5 -47.5zM645 -25q-209 0 -323.5 105.5
t-114.5 320.5q0 268 81.5 506t237.5 373q158 137 392 137q215 0 333.5 -104t118.5 -322q0 -182 -34.5 -348.5t-112 -313.5t-189.5 -235q-74 -58 -176 -88.5t-213 -30.5z" />
    <glyph glyph-name="multiply" unicode="&#xd7;" 
d="M410 969l282 -289l287 293l172 -174l-293 -287l293 -285l-174 -174l-285 291l-284 -289l-175 172l291 285l-288 283z" />
    <glyph glyph-name="Oslash" unicode="&#xd8;" horiz-adv-x="1259" 
d="M244 -248l-135 82l186 275q-88 108 -88 292q0 268 81.5 506t237.5 373q158 137 392 137q142 0 235 -41l186 273l152 -64l-209 -307q88 -109 88 -287q0 -182 -34.5 -348.5t-112 -313.5t-189.5 -235q-74 -58 -176 -88.5t-213 -30.5q-125 0 -223 39zM694 221q102 0 172 70
q97 97 155 292t58 380v16l-213 -313l-288 -424q44 -21 116 -21zM498 410l225 333l276 408q-41 20 -114 20q-105 0 -166 -61q-101 -100 -161 -304t-60 -376v-20z" />
    <glyph glyph-name="Ugrave" unicode="&#xd9;" horiz-adv-x="1218" 
d="M797 1946l454 -187l-125 -215l-464 158zM723 1393l-213 -920q-18 -77 -18 -135q0 -68 41.5 -92.5t125.5 -24.5q127 0 180.5 56.5t84.5 195.5l213 920h282l-213 -920q-60 -263 -193.5 -380.5t-377.5 -117.5q-198 0 -311 79t-113 237q0 100 27 227l202 875h283z" />
    <glyph glyph-name="Uacute" unicode="&#xda;" horiz-adv-x="1218" 
d="M723 1393l-213 -920q-18 -77 -18 -135q0 -68 41.5 -92.5t125.5 -24.5q127 0 180.5 56.5t84.5 195.5l213 920h282l-213 -920q-60 -263 -193.5 -380.5t-377.5 -117.5q-198 0 -311 79t-113 237q0 100 27 227l202 875h283zM739 1567l-20 217l541 186l20 -246z" />
    <glyph glyph-name="Ucircumflex" unicode="&#xdb;" horiz-adv-x="1218" 
d="M723 1393l-213 -920q-18 -77 -18 -135q0 -68 41.5 -92.5t125.5 -24.5q127 0 180.5 56.5t84.5 195.5l213 920h282l-213 -920q-60 -263 -193.5 -380.5t-377.5 -117.5q-198 0 -311 79t-113 237q0 100 27 227l202 875h283zM604 1595l361 312h163l197 -312h-250l-53 113
l-127 -113h-291z" />
    <glyph glyph-name="Udieresis" unicode="&#xdc;" horiz-adv-x="1218" 
d="M625 1599l63 277h248l-66 -277h-245zM1042 1599l64 277h248l-66 -277h-246zM723 1393l-213 -920q-18 -77 -18 -135q0 -68 41.5 -92.5t125.5 -24.5q127 0 180.5 56.5t84.5 195.5l213 920h282l-213 -920q-60 -263 -193.5 -380.5t-377.5 -117.5q-198 0 -311 79t-113 237
q0 100 27 227l202 875h283z" />
    <glyph glyph-name="Yacute" unicode="&#xdd;" horiz-adv-x="1032" 
d="M707 1567l-21 217l541 186l20 -246zM1354 1393l-574 -803l-139 -590h-262l139 602l-194 791h286l99 -543l346 543h299z" />
    <glyph glyph-name="Thorn" unicode="&#xde;" horiz-adv-x="1101" 
d="M702 483q195 0 254 230q13 43 10 83t-17.5 70.5t-49.5 49.5t-86 20l-197 4l-108 -457h194zM639 203l-197 2l-47 -205h-266l334 1413h268l-51 -199h197q136 0 227 -68t122 -181.5t1 -251.5q-53 -239 -209 -376t-379 -134z" />
    <glyph glyph-name="germandbls" unicode="&#xdf;" horiz-adv-x="1155" 
d="M369 0h-258l251 1065q28 114 70.5 190.5t106.5 121t142 63t187 18.5q198 0 302 -77.5t104 -219.5q0 -107 -41 -176.5t-146 -110.5q-108 -43 -146 -68.5t-38 -64.5q0 -31 24 -53.5t111 -79.5q40 -26 57.5 -38.5t41.5 -35t33 -42.5t16.5 -51t7.5 -72q0 -182 -113 -288
t-309 -106q-68 0 -150.5 14.5t-131.5 28.5l-48 15l60 200q143 -24 237 -24q88 0 132 35.5t44 85.5q0 36 -21 57.5t-101 69.5q-97 58 -132.5 106.5t-35.5 126.5q0 119 53 186.5t164 118.5q98 46 125.5 70.5t27.5 67.5q0 42 -39 67t-116 25q-97 0 -151 -46t-79 -151z" />
    <glyph glyph-name="agrave" unicode="&#xe0;" horiz-adv-x="1081" 
d="M453 -25q-149 0 -219 101t-70 272q0 88 17.5 180.5t58.5 186.5t99.5 167.5t148 120t196.5 46.5q67 0 195 -17t223 -34l94 -17l-154 -662q-13 -56 -26.5 -134.5t-21.5 -128.5l-7 -50l-272 -10q18 125 26 160q-5 -7 -15 -19.5t-41 -43.5t-63 -55t-78.5 -43.5t-90.5 -19.5z
M692 815q-59 0 -108.5 -46.5t-79.5 -118t-46 -150.5t-16 -152q0 -71 22.5 -105t82.5 -34q37 0 97 45.5t101 91.5l41 45l95 395q-136 29 -189 29zM721 1581l453 -184l-115 -203l-469 162z" />
    <glyph glyph-name="aacute" unicode="&#xe1;" horiz-adv-x="1081" 
d="M453 -25q-149 0 -219 101t-70 272q0 88 17.5 180.5t58.5 186.5t99.5 167.5t148 120t196.5 46.5q67 0 195 -17t223 -34l94 -17l-154 -662q-13 -56 -26.5 -134.5t-21.5 -128.5l-7 -50l-272 -10q18 125 26 160q-5 -7 -15 -19.5t-41 -43.5t-63 -55t-78.5 -43.5t-90.5 -19.5z
M692 815q-59 0 -108.5 -46.5t-79.5 -118t-46 -150.5t-16 -152q0 -71 22.5 -105t82.5 -34q37 0 97 45.5t101 91.5l41 45l95 395q-136 29 -189 29zM688 1180l-20 219l540 186l21 -246z" />
    <glyph glyph-name="acircumflex" unicode="&#xe2;" horiz-adv-x="1081" 
d="M434 1178l344 358h205l176 -358h-270l-49 131l-119 -131h-287zM453 -25q-149 0 -219 101t-70 272q0 88 17.5 180.5t58.5 186.5t99.5 167.5t148 120t196.5 46.5q67 0 195 -17t223 -34l94 -17l-154 -662q-13 -56 -26.5 -134.5t-21.5 -128.5l-7 -50l-272 -10q18 125 26 160
q-5 -7 -15 -19.5t-41 -43.5t-63 -55t-78.5 -43.5t-90.5 -19.5zM692 815q-59 0 -108.5 -46.5t-79.5 -118t-46 -150.5t-16 -152q0 -71 22.5 -105t82.5 -34q37 0 97 45.5t101 91.5l41 45l95 395q-136 29 -189 29z" />
    <glyph glyph-name="atilde" unicode="&#xe3;" horiz-adv-x="1081" 
d="M453 -25q-149 0 -219 101t-70 272q0 88 17.5 180.5t58.5 186.5t99.5 167.5t148 120t196.5 46.5q67 0 195 -17t223 -34l94 -17l-154 -662q-13 -56 -26.5 -134.5t-21.5 -128.5l-7 -50l-272 -10q18 125 26 160q-5 -7 -15 -19.5t-41 -43.5t-63 -55t-78.5 -43.5t-90.5 -19.5z
M692 815q-59 0 -108.5 -46.5t-79.5 -118t-46 -150.5t-16 -152q0 -71 22.5 -105t82.5 -34q37 0 97 45.5t101 91.5l41 45l95 395q-136 29 -189 29zM1241 1530l8 -191q-6 -5 -15.5 -14t-38.5 -31.5t-56.5 -40t-63 -31.5t-63.5 -14q-53 0 -146.5 45t-120.5 45q-24 0 -68 -20
t-76 -40l-32 -21l-6 188q6 5 15.5 14t39 32t56.5 40.5t62.5 32t62.5 14.5q49 0 104.5 -22t98.5 -44t63 -22q22 0 66 20t77 40z" />
    <glyph glyph-name="adieresis" unicode="&#xe4;" horiz-adv-x="1081" 
d="M496 1231l63 276h248l-66 -276h-245zM913 1231l64 276h248l-66 -276h-246zM453 -25q-149 0 -219 101t-70 272q0 88 17.5 180.5t58.5 186.5t99.5 167.5t148 120t196.5 46.5q67 0 195 -17t223 -34l94 -17l-154 -662q-13 -56 -26.5 -134.5t-21.5 -128.5l-7 -50l-272 -10
q18 125 26 160q-5 -7 -15 -19.5t-41 -43.5t-63 -55t-78.5 -43.5t-90.5 -19.5zM692 815q-59 0 -108.5 -46.5t-79.5 -118t-46 -150.5t-16 -152q0 -71 22.5 -105t82.5 -34q37 0 97 45.5t101 91.5l41 45l95 395q-136 29 -189 29z" />
    <glyph glyph-name="aring" unicode="&#xe5;" horiz-adv-x="1081" 
d="M453 -25q-149 0 -219 101t-70 272q0 88 17.5 180.5t58.5 186.5t99.5 167.5t148 120t196.5 46.5q67 0 195 -17t223 -34l94 -17l-154 -662q-13 -56 -26.5 -134.5t-21.5 -128.5l-7 -50l-272 -10q18 125 26 160q-5 -7 -15 -19.5t-41 -43.5t-63 -55t-78.5 -43.5t-90.5 -19.5z
M692 815q-59 0 -108.5 -46.5t-79.5 -118t-46 -150.5t-16 -152q0 -71 22.5 -105t82.5 -34q37 0 97 45.5t101 91.5l41 45l95 395q-136 29 -189 29zM678 1343q24 96 95 158t167 62q97 0 135 -62.5t15 -159.5q-24 -103 -96.5 -162t-168.5 -59q-97 0 -135 63t-12 160zM825 1343
q-8 -24 5.5 -42.5t39.5 -18.5t46 17t28 42q7 25 -7.5 41.5t-37.5 16.5q-26 0 -46 -15.5t-28 -40.5z" />
    <glyph glyph-name="ae" unicode="&#xe6;" horiz-adv-x="1462" 
d="M1067 223q63 0 151 4.5t144 9.5l57 5l-47 -209q-21 -6 -57.5 -16t-137 -26t-188.5 -16q-208 0 -284 101q-53 -29 -173.5 -65t-187.5 -36q-85 0 -145 50t-81.5 127.5t-0.5 160.5q59 258 313 305q138 24 285 21q7 21 10 45.5t0.5 49.5t-18 41t-43.5 16q-64 0 -157 -7.5
t-155 -14.5l-61 -7l43 239q260 46 401 46q172 0 234 -84q116 84 272 84q150 0 228.5 -71.5t86.5 -201.5q6 -91 -26 -207l-47 -174l-551 4q-10 -48 -4 -84q17 -90 139 -90zM440 211q92 0 207 27q-10 78 21 196q-52 0 -162 -8q-46 -3 -81.5 -31t-45.5 -73q-9 -40 6 -75.5
t55 -35.5zM979 606l307 -4q19 78 10 131q-17 78 -116 78q-86 0 -130.5 -52t-70.5 -153z" />
    <glyph glyph-name="ccedilla" unicode="&#xe7;" horiz-adv-x="839" 
d="M705 1049q64 0 140 -16t121 -32l44 -16l-70 -201q-158 27 -248 27q-60 0 -108 -38t-76.5 -100t-43.5 -134.5t-15 -147.5q0 -89 36.5 -133.5t118.5 -44.5q39 0 94 4t90 8l35 4l-22 -202q-129 -46 -264 -52l-13 -43h13q106 0 156 -41t26 -145q-25 -105 -92 -160t-172 -55
q-37 0 -80 6t-67 11l-25 6l41 165q61 -2 94 -2q74 0 86 50q7 25 -9 32.5t-55 7.5h-45l39 175q-123 21 -193.5 111.5t-70.5 238.5q0 151 34 280t99 227t168 154t234 56z" />
    <glyph glyph-name="egrave" unicode="&#xe8;" horiz-adv-x="974" 
d="M590 209q62 0 147 6.5t139 13.5l54 7l-31 -203q-21 -6 -58 -16t-139 -26t-190 -16q-177 0 -261.5 84.5t-84.5 264.5q0 114 19.5 218t63.5 197t108 160.5t159 107.5t211 40q358 0 358 -306q0 -100 -32.5 -166.5t-105 -105t-175 -54.5t-254.5 -16h-72q-6 -24 -6 -69
q0 -59 42.5 -90t107.5 -31zM477 602h84q142 0 198 31t56 104q0 48 -25 68t-77 20q-183 0 -236 -223zM535 1581l452 -184l-115 -203l-469 162z" />
    <glyph glyph-name="eacute" unicode="&#xe9;" horiz-adv-x="974" 
d="M590 209q62 0 147 6.5t139 13.5l54 7l-31 -203q-21 -6 -58 -16t-139 -26t-190 -16q-177 0 -261.5 84.5t-84.5 264.5q0 114 19.5 218t63.5 197t108 160.5t159 107.5t211 40q358 0 358 -306q0 -100 -32.5 -166.5t-105 -105t-175 -54.5t-254.5 -16h-72q-6 -24 -6 -69
q0 -59 42.5 -90t107.5 -31zM477 602h84q142 0 198 31t56 104q0 48 -25 68t-77 20q-183 0 -236 -223zM578 1180l-21 219l541 186l20 -246z" />
    <glyph glyph-name="ecircumflex" unicode="&#xea;" horiz-adv-x="974" 
d="M379 1178l344 358h205l176 -358h-270l-50 131l-118 -131h-287zM590 209q62 0 147 6.5t139 13.5l54 7l-31 -203q-21 -6 -58 -16t-139 -26t-190 -16q-177 0 -261.5 84.5t-84.5 264.5q0 114 19.5 218t63.5 197t108 160.5t159 107.5t211 40q358 0 358 -306
q0 -100 -32.5 -166.5t-105 -105t-175 -54.5t-254.5 -16h-72q-6 -24 -6 -69q0 -59 42.5 -90t107.5 -31zM477 602h84q142 0 198 31t56 104q0 48 -25 68t-77 20q-183 0 -236 -223z" />
    <glyph glyph-name="edieresis" unicode="&#xeb;" horiz-adv-x="974" 
d="M432 1231l64 276h247l-65 -276h-246zM850 1231l63 276h248l-65 -276h-246zM590 209q62 0 147 6.5t139 13.5l54 7l-31 -203q-21 -6 -58 -16t-139 -26t-190 -16q-177 0 -261.5 84.5t-84.5 264.5q0 114 19.5 218t63.5 197t108 160.5t159 107.5t211 40q358 0 358 -306
q0 -100 -32.5 -166.5t-105 -105t-175 -54.5t-254.5 -16h-72q-6 -24 -6 -69q0 -59 42.5 -90t107.5 -31zM477 602h84q142 0 198 31t56 104q0 48 -25 68t-77 20q-183 0 -236 -223z" />
    <glyph glyph-name="igrave" unicode="&#xec;" horiz-adv-x="497" 
d="M113 0l235 1024h275l-236 -1024h-274zM276 1581l453 -184l-115 -203l-469 162z" />
    <glyph glyph-name="iacute" unicode="&#xed;" horiz-adv-x="497" 
d="M113 0l235 1024h275l-236 -1024h-274zM373 1180l-21 219l541 186l20 -246z" />
    <glyph glyph-name="icircumflex" unicode="&#xee;" horiz-adv-x="497" 
d="M141 1178l344 358h205l176 -358h-270l-49 131l-119 -131h-287zM113 0l235 1024h275l-236 -1024h-274z" />
    <glyph glyph-name="idieresis" unicode="&#xef;" horiz-adv-x="497" 
d="M182 1231l64 276h248l-66 -276h-246zM600 1231l64 276h247l-65 -276h-246zM113 0l235 1024h275l-236 -1024h-274z" />
    <glyph glyph-name="eth" unicode="&#xf0;" horiz-adv-x="1079" 
d="M780 1114l-219 -151l-94 147l92 64l-131 18l90 238q200 -9 336 -54l201 137l88 -147l-111 -78q241 -176 146 -565q-47 -192 -103 -325t-134.5 -229.5t-184.5 -141.5t-246 -45q-86 0 -155.5 25.5t-112.5 70t-68.5 104.5t-25.5 128.5t18 142.5q53 198 192 321t336 123
q59 0 117.5 -11.5t87.5 -22.5l29 -11q33 182 -148 262zM655 651q-73 0 -129 -54.5t-80 -141.5q-16 -64 -15 -111.5t35.5 -74.5t104.5 -27q212 0 303 364q-90 45 -219 45z" />
    <glyph glyph-name="ntilde" unicode="&#xf1;" horiz-adv-x="1050" 
d="M113 0h274l158 688q5 5 14 13.5t35 29.5t49 37t50.5 29.5t45.5 13.5q53 0 68.5 -27.5t15.5 -91.5q0 -54 -37 -211l-110 -481h274l115 502q43 187 43 258q0 131 -59.5 210t-190.5 79q-60 0 -125 -31.5t-100 -62.5l-35 -31l12 100h-262zM1184 1530l8 -191q-6 -5 -15.5 -14
t-39 -31.5t-57 -40t-63 -31.5t-63.5 -14q-53 0 -146 45t-120 45q-24 0 -68 -20t-76 -40l-32 -21l-6 188q6 5 15.5 14t38.5 32t56.5 40.5t62.5 32t62 14.5q49 0 104.5 -22t99 -44t63.5 -22q22 0 66 20t77 40z" />
    <glyph glyph-name="ograve" unicode="&#xf2;" horiz-adv-x="1015" 
d="M682 1047q403 0 403 -388q0 -96 -20.5 -192t-63.5 -185t-103 -157t-145.5 -109t-185.5 -41q-403 0 -403 387q0 95 22 192t66.5 185.5t105 157t145 109.5t179.5 41zM567 209q74 0 132 70t86 172.5t28 212.5q0 71 -33.5 110t-97.5 39q-74 0 -132 -70t-86 -172.5t-28 -212.5
q0 -71 33.5 -110t97.5 -39zM596 1581l453 -184l-115 -203l-469 162z" />
    <glyph glyph-name="oacute" unicode="&#xf3;" horiz-adv-x="1015" 
d="M682 1047q403 0 403 -388q0 -96 -20.5 -192t-63.5 -185t-103 -157t-145.5 -109t-185.5 -41q-403 0 -403 387q0 95 22 192t66.5 185.5t105 157t145 109.5t179.5 41zM567 209q74 0 132 70t86 172.5t28 212.5q0 71 -33.5 110t-97.5 39q-74 0 -132 -70t-86 -172.5t-28 -212.5
q0 -71 33.5 -110t97.5 -39zM580 1180l-21 219l541 186l20 -246z" />
    <glyph glyph-name="ocircumflex" unicode="&#xf4;" horiz-adv-x="1015" 
d="M410 1178l344 358h204l177 -358h-271l-49 131l-119 -131h-286zM682 1047q403 0 403 -388q0 -96 -20.5 -192t-63.5 -185t-103 -157t-145.5 -109t-185.5 -41q-403 0 -403 387q0 95 22 192t66.5 185.5t105 157t145 109.5t179.5 41zM567 209q74 0 132 70t86 172.5t28 212.5
q0 71 -33.5 110t-97.5 39q-74 0 -132 -70t-86 -172.5t-28 -212.5q0 -71 33.5 -110t97.5 -39z" />
    <glyph glyph-name="otilde" unicode="&#xf5;" horiz-adv-x="1015" 
d="M682 1047q403 0 403 -388q0 -96 -20.5 -192t-63.5 -185t-103 -157t-145.5 -109t-185.5 -41q-403 0 -403 387q0 95 22 192t66.5 185.5t105 157t145 109.5t179.5 41zM567 209q74 0 132 70t86 172.5t28 212.5q0 71 -33.5 110t-97.5 39q-74 0 -132 -70t-86 -172.5t-28 -212.5
q0 -71 33.5 -110t97.5 -39zM1133 1530l8 -191q-6 -5 -15.5 -14t-39 -31.5t-57 -40t-63 -31.5t-63.5 -14q-53 0 -146 45t-120 45q-24 0 -68 -20t-76 -40l-32 -21l-6 188q6 5 15.5 14t38.5 32t56.5 40.5t62.5 32t62 14.5q49 0 104.5 -22t98.5 -44t63 -22q22 0 66 20t78 40z
" />
    <glyph glyph-name="odieresis" unicode="&#xf6;" horiz-adv-x="1015" 
d="M682 1047q403 0 403 -388q0 -96 -20.5 -192t-63.5 -185t-103 -157t-145.5 -109t-185.5 -41q-403 0 -403 387q0 95 22 192t66.5 185.5t105 157t145 109.5t179.5 41zM567 209q74 0 132 70t86 172.5t28 212.5q0 71 -33.5 110t-97.5 39q-74 0 -132 -70t-86 -172.5t-28 -212.5
q0 -71 33.5 -110t97.5 -39zM467 1231l63 276h228l-66 -276h-225zM864 1231l64 276h227l-65 -276h-226z" />
    <glyph glyph-name="divide" unicode="&#xf7;" 
d="M555 721v270h270v-270h-270zM221 391v246h942v-246h-942zM555 35v270h270v-270h-270z" />
    <glyph glyph-name="oslash" unicode="&#xf8;" horiz-adv-x="1015" 
d="M684 1051q94 0 174 -25l131 215l146 -63l-146 -228q98 -95 98 -286q0 -96 -20.5 -192t-63.5 -185t-103 -157t-145.5 -109t-185.5 -41q-96 0 -176 22l-135 -221l-143 63l149 234q-98 95 -98 289q0 95 22 192t66.5 185t105 156.5t145 109.5t179.5 41zM438 346l127 199
l162 266q-18 6 -43 6q-74 0 -132 -70t-86 -172.5t-28 -212.5v-16zM569 213q74 0 132 70t86 172.5t28 212.5v10l-127 -197l-162 -264q24 -4 43 -4z" />
    <glyph glyph-name="ugrave" unicode="&#xf9;" horiz-adv-x="1050" 
d="M604 1581l453 -184l-115 -203l-469 162zM899 1024h275l-236 -1024h-262l12 100q-5 -5 -14.5 -13.5t-38 -30t-58 -38t-70.5 -30t-79 -13.5q-131 0 -190.5 79t-59.5 210q0 77 43 258l115 502h274l-110 -481q-37 -157 -37 -211q0 -62 17.5 -90.5t66.5 -28.5q29 0 77.5 30.5
t82.5 61.5l34 31z" />
    <glyph glyph-name="uacute" unicode="&#xfa;" horiz-adv-x="1050" 
d="M899 1024h275l-236 -1024h-262l12 100q-5 -5 -14.5 -13.5t-38 -30t-58 -38t-70.5 -30t-79 -13.5q-131 0 -190.5 79t-59.5 210q0 77 43 258l115 502h274l-110 -481q-37 -157 -37 -211q0 -62 17.5 -90.5t66.5 -28.5q29 0 77.5 30.5t82.5 61.5l34 31zM588 1180l-21 219
l541 186l20 -246z" />
    <glyph glyph-name="ucircumflex" unicode="&#xfb;" horiz-adv-x="1050" 
d="M403 1178l345 358h204l176 -358h-270l-49 131l-119 -131h-287zM899 1024h275l-236 -1024h-262l12 100q-5 -5 -14.5 -13.5t-38 -30t-58 -38t-70.5 -30t-79 -13.5q-131 0 -190.5 79t-59.5 210q0 77 43 258l115 502h274l-110 -481q-37 -157 -37 -211q0 -62 17.5 -90.5
t66.5 -28.5q29 0 77.5 30.5t82.5 61.5l34 31z" />
    <glyph glyph-name="udieresis" unicode="&#xfc;" horiz-adv-x="1050" 
d="M442 1231l64 276h248l-66 -276h-246zM860 1231l64 276h247l-65 -276h-246zM899 1024h275l-236 -1024h-262l12 100q-5 -5 -14.5 -13.5t-38 -30t-58 -38t-70.5 -30t-79 -13.5q-131 0 -190.5 79t-59.5 210q0 77 43 258l115 502h274l-110 -481q-37 -157 -37 -211
q0 -62 17.5 -90.5t66.5 -28.5q29 0 77.5 30.5t82.5 61.5l34 31z" />
    <glyph glyph-name="yacute" unicode="&#xfd;" horiz-adv-x="950" 
d="M258 1024h268l-28 -797h30l357 797h276l-680 -1454h-272l211 430h-170zM559 1180l-20 219l540 186l21 -246z" />
    <glyph glyph-name="thorn" unicode="&#xfe;" horiz-adv-x="1013" 
d="M807 1047q77 0 134 -23t89 -64t50.5 -92t20 -111.5t-6 -118t-23.5 -116.5q-57 -209 -134 -329t-178.5 -169t-250.5 -49q-34 0 -69 2t-56 4.5t-21 4.5l-96 -412h-258l438 1856h259l-109 -469q1 0 14 9.5t33.5 22t45.5 25t57 21t61 8.5zM537 717l-115 -486l137 -12
q170 0 248 303q12 44 16 86.5t-0.5 87t-32 72t-75.5 27.5q-29 0 -73.5 -20.5t-74.5 -39.5t-30 -18z" />
    <glyph glyph-name="ydieresis" unicode="&#xff;" horiz-adv-x="950" 
d="M406 1231l63 276h248l-66 -276h-245zM823 1231l64 276h248l-66 -276h-246zM258 1024h268l-28 -797h30l357 797h276l-680 -1454h-272l211 430h-170z" />
    <glyph glyph-name="Amacron" unicode="&#x100;" horiz-adv-x="1128" 
d="M590 1651l51 223h670l-51 -223h-670zM27 0l626 1393h488l-43 -1393h-283l8 242h-405l-109 -242h-282zM819 1147l-295 -660h310l28 660h-43z" />
    <glyph glyph-name="amacron" unicode="&#x101;" horiz-adv-x="1081" 
d="M453 -25q-149 0 -219 101t-70 272q0 88 17.5 180.5t58.5 186.5t99.5 167.5t148 120t196.5 46.5q67 0 195 -17t223 -34l94 -17l-154 -662q-13 -56 -26.5 -134.5t-21.5 -128.5l-7 -50l-272 -10q18 125 26 160q-5 -7 -15 -19.5t-41 -43.5t-63 -55t-78.5 -43.5t-90.5 -19.5z
M692 815q-59 0 -108.5 -46.5t-79.5 -118t-46 -150.5t-16 -152q0 -71 22.5 -105t82.5 -34q37 0 97 45.5t101 91.5l41 45l95 395q-136 29 -189 29zM567 1284l51 223h633l-53 -223h-631z" />
    <glyph glyph-name="Abreve" unicode="&#x102;" horiz-adv-x="1128" 
d="M662 1898h249q-11 -79 72 -79q39 0 67 21.5t42 57.5h249q-24 -71 -55.5 -122t-78.5 -91t-114 -60.5t-155 -20.5q-152 0 -223.5 76.5t-52.5 217.5zM27 0l626 1393h488l-43 -1393h-283l8 242h-405l-109 -242h-282zM819 1147l-295 -660h310l28 660h-43z" />
    <glyph glyph-name="abreve" unicode="&#x103;" horiz-adv-x="1081" 
d="M453 -25q-149 0 -219 101t-70 272q0 88 17.5 180.5t58.5 186.5t99.5 167.5t148 120t196.5 46.5q67 0 195 -17t223 -34l94 -17l-154 -662q-13 -56 -26.5 -134.5t-21.5 -128.5l-7 -50l-272 -10q18 125 26 160q-5 -7 -15 -19.5t-41 -43.5t-63 -55t-78.5 -43.5t-90.5 -19.5z
M692 815q-59 0 -108.5 -46.5t-79.5 -118t-46 -150.5t-16 -152q0 -71 22.5 -105t82.5 -34q37 0 97 45.5t101 91.5l41 45l95 395q-136 29 -189 29zM588 1528h248q-8 -90 86 -90q95 0 129 90h247q-52 -156 -159 -238t-287 -82q-308 0 -264 320z" />
    <glyph glyph-name="Aogonek" unicode="&#x104;" horiz-adv-x="1128" 
d="M27 0l626 1393h488l-43 -1383v-10h-17q-45 -33 -90 -85t-45 -83q0 -29 27 -29l76 7l-27 -226q-117 -22 -201 -22q-80 0 -125 40t-45 117q0 70 56 146t129 135h-21l8 242h-405l-109 -242h-282zM819 1147l-295 -660h310l28 660h-43z" />
    <glyph glyph-name="aogonek" unicode="&#x105;" horiz-adv-x="1081" 
d="M926 -190l-27 -226q-117 -22 -201 -22q-80 0 -125 40t-45 117q0 71 57.5 148t129.5 135q1 4 11 70t15 84q-5 -7 -15 -19.5t-41 -43.5t-63 -55t-78.5 -43.5t-90.5 -19.5q-149 0 -219 101t-70 272q0 88 17.5 180.5t58.5 186.5t99.5 167.5t148 120t196.5 46.5q67 0 195 -17
t223 -34l94 -17l-154 -662q-13 -56 -26.5 -134.5t-21.5 -128.5l-7 -50l-20 -2q-44 -29 -94 -84.5t-50 -87.5q0 -29 27 -29zM692 815q-59 0 -108.5 -46.5t-79.5 -118t-46 -150.5t-16 -152q0 -71 22.5 -105t82.5 -34q37 0 97 45.5t101 91.5l41 45l95 395q-136 29 -189 29z" />
    <glyph glyph-name="Cacute" unicode="&#x106;" horiz-adv-x="1011" 
d="M991 248l-22 -219q-190 -54 -346 -54q-211 0 -315.5 103.5t-104.5 300.5q0 96 11.5 194t38 200.5t65.5 195.5t97.5 175.5t130.5 142.5t168 95t206 35q75 0 162.5 -15.5t137.5 -30.5l50 -15l-66 -209q-127 24 -295 24q-127 0 -223.5 -113t-144 -286.5t-47.5 -372.5
q0 -178 165 -178q71 0 154 6.5t131 13.5zM786 1567l-20 217l541 186l20 -246z" />
    <glyph glyph-name="cacute" unicode="&#x107;" horiz-adv-x="837" 
d="M702 1049q64 0 140.5 -16t121.5 -32l44 -16l-70 -201q-158 27 -248 27q-60 0 -108.5 -38t-77 -100t-43.5 -134.5t-15 -147.5q0 -89 37 -133.5t119 -44.5q39 0 94 4t90 8l35 4l-22 -202q-17 -6 -46 -14.5t-107.5 -23t-143.5 -14.5q-151 0 -242.5 94.5t-91.5 262.5
q0 151 33.5 280t98.5 227t168 154t234 56zM549 1180l-21 219l541 186l21 -246z" />
    <glyph glyph-name="Ccircumflex" unicode="&#x108;" horiz-adv-x="1011" 
d="M991 248l-22 -219q-190 -54 -346 -54q-211 0 -315.5 103.5t-104.5 300.5q0 96 11.5 194t38 200.5t65.5 195.5t97.5 175.5t130.5 142.5t168 95t206 35q75 0 162.5 -15.5t137.5 -30.5l50 -15l-66 -209q-127 24 -295 24q-127 0 -223.5 -113t-144 -286.5t-47.5 -372.5
q0 -178 165 -178q71 0 154 6.5t131 13.5zM598 1595l360 312h164l197 -312h-250l-53 113l-127 -113h-291z" />
    <glyph glyph-name="ccircumflex" unicode="&#x109;" horiz-adv-x="837" 
d="M702 1049q64 0 140.5 -16t121.5 -32l44 -16l-70 -201q-158 27 -248 27q-60 0 -108.5 -38t-77 -100t-43.5 -134.5t-15 -147.5q0 -89 37 -133.5t119 -44.5q39 0 94 4t90 8l35 4l-22 -202q-17 -6 -46 -14.5t-107.5 -23t-143.5 -14.5q-151 0 -242.5 94.5t-91.5 262.5
q0 151 33.5 280t98.5 227t168 154t234 56zM397 1178l344 358h164l176 -358h-250l-49 131l-118 -131h-267z" />
    <glyph glyph-name="Cdotaccent" unicode="&#x10a;" horiz-adv-x="1011" 
d="M991 248l-22 -219q-190 -54 -346 -54q-211 0 -315.5 103.5t-104.5 300.5q0 96 11.5 194t38 200.5t65.5 195.5t97.5 175.5t130.5 142.5t168 95t206 35q75 0 162.5 -15.5t137.5 -30.5l50 -15l-66 -209q-127 24 -295 24q-127 0 -223.5 -113t-144 -286.5t-47.5 -372.5
q0 -178 165 -178q71 0 154 6.5t131 13.5zM829 1579l66 283h242l-70 -283h-238z" />
    <glyph glyph-name="cdotaccent" unicode="&#x10b;" horiz-adv-x="837" 
d="M702 1049q64 0 140.5 -16t121.5 -32l44 -16l-70 -201q-158 27 -248 27q-60 0 -108.5 -38t-77 -100t-43.5 -134.5t-15 -147.5q0 -89 37 -133.5t119 -44.5q39 0 94 4t90 8l35 4l-22 -202q-17 -6 -46 -14.5t-107.5 -23t-143.5 -14.5q-151 0 -242.5 94.5t-91.5 262.5
q0 151 33.5 280t98.5 227t168 154t234 56zM614 1192l66 281h238l-66 -281h-238z" />
    <glyph glyph-name="Ccaron" unicode="&#x10c;" horiz-adv-x="1011" 
d="M991 248l-22 -219q-190 -54 -346 -54q-211 0 -315.5 103.5t-104.5 300.5q0 96 11.5 194t38 200.5t65.5 195.5t97.5 175.5t130.5 142.5t168 95t206 35q75 0 162.5 -15.5t137.5 -30.5l50 -15l-66 -209q-127 24 -295 24q-127 0 -223.5 -113t-144 -286.5t-47.5 -372.5
q0 -178 165 -178q71 0 154 6.5t131 13.5zM1389 1898l-328 -309h-189l-190 309h270l60 -116l108 116h269z" />
    <glyph glyph-name="ccaron" unicode="&#x10d;" horiz-adv-x="837" 
d="M844 1178h-174l-168 358h252l59 -135l109 135h264zM702 1049q64 0 140.5 -16t121.5 -32l44 -16l-70 -201q-158 27 -248 27q-60 0 -108.5 -38t-77 -100t-43.5 -134.5t-15 -147.5q0 -89 37 -133.5t119 -44.5q39 0 94 4t90 8l35 4l-22 -202q-17 -6 -46 -14.5t-107.5 -23
t-143.5 -14.5q-151 0 -242.5 94.5t-91.5 262.5q0 151 33.5 280t98.5 227t168 154t234 56z" />
    <glyph glyph-name="Dcaron" unicode="&#x10e;" horiz-adv-x="1239" 
d="M133 0h500q145 0 266 56.5t203.5 151t140 220.5t83.5 262.5t26 278.5q0 424 -459 424h-438zM1061 969q0 -81 -13 -173t-44.5 -191t-76.5 -178t-115.5 -130t-154.5 -51h-184l207 901h156q112 0 168.5 -39.5t56.5 -138.5zM1325 1898l-328 -309h-188l-191 309h271l59 -116
l109 116h268z" />
    <glyph glyph-name="dcaron" unicode="&#x10f;" horiz-adv-x="1304" 
d="M1647 1393l-123 -514h-252l125 514h250zM1300 1434l-331 -1434h-267l19 106q-5 -5 -13.5 -14t-36 -31.5t-56.5 -40t-72 -31.5t-84 -14q-146 0 -220.5 94.5t-74.5 268.5q0 101 20.5 201t63.5 192t103 162t145 112t184 42q38 0 99.5 -10.5t104.5 -21.5l42 -11l100 430h274z
M778 356l99 428q-119 29 -197 29q-55 0 -101.5 -47.5t-75.5 -120t-45 -153t-16 -152.5q0 -59 26 -95t79 -36q34 0 91.5 36.5t98.5 73.5z" />
    <glyph glyph-name="Dcroat" unicode="&#x110;" horiz-adv-x="1255" 
d="M649 0h-499l129 563h-111l59 279h117l127 551h438q459 0 459 -424q0 -142 -26 -278.5t-83.5 -262.5t-140 -220.5t-203.5 -151t-266 -56.5zM1077 969q0 99 -56.5 138.5t-168.5 39.5h-156l-69 -305h221l-62 -279h-225l-72 -317h185q84 0 154.5 51t115 130t76 178t44.5 191
t13 173z" />
    <glyph glyph-name="dcroat" unicode="&#x111;" horiz-adv-x="1081" 
d="M1300 1434l-16 -70h111l-58 -244h-110l-258 -1120h-267l19 106q-5 -5 -13.5 -14t-36 -31.5t-56.5 -40t-72 -31.5t-84 -14q-146 0 -220.5 94.5t-74.5 268.5q0 101 20.5 201t63.5 192t103 162t145 112t184 42q38 0 99.5 -10.5t104.5 -21.5l42 -11l26 116h-245l55 244h248
l16 70h274zM778 356l99 428q-119 29 -197 29q-55 0 -101.5 -47.5t-75.5 -120t-45 -153t-16 -152.5q0 -59 26 -95t79 -36q34 0 91.5 36.5t98.5 73.5z" />
    <glyph glyph-name="Emacron" unicode="&#x112;" horiz-adv-x="1017" 
d="M567 1651l51 223h670l-51 -223h-670zM133 0l320 1393h817l-58 -246h-532l-76 -328h422l-57 -246h-420l-76 -327h535l-56 -246h-819z" />
    <glyph glyph-name="emacron" unicode="&#x113;" horiz-adv-x="974" 
d="M590 209q62 0 147 6.5t139 13.5l54 7l-31 -203q-21 -6 -58 -16t-139 -26t-190 -16q-177 0 -261.5 84.5t-84.5 264.5q0 114 19.5 218t63.5 197t108 160.5t159 107.5t211 40q358 0 358 -306q0 -100 -32.5 -166.5t-105 -105t-175 -54.5t-254.5 -16h-72q-6 -24 -6 -69
q0 -59 42.5 -90t107.5 -31zM477 602h84q142 0 198 31t56 104q0 48 -25 68t-77 20q-183 0 -236 -223zM446 1284l52 223h632l-53 -223h-631z" />
    <glyph glyph-name="Ebreve" unicode="&#x114;" horiz-adv-x="1017" 
d="M608 1898h250q-11 -79 72 -79q78 0 108 79h250q-24 -71 -55.5 -122t-78.5 -91t-114 -60.5t-155 -20.5q-152 0 -224 76.5t-53 217.5zM133 0l320 1393h817l-58 -246h-532l-76 -328h422l-57 -246h-420l-76 -327h535l-56 -246h-819z" />
    <glyph glyph-name="ebreve" unicode="&#x115;" horiz-adv-x="974" 
d="M590 209q62 0 147 6.5t139 13.5l54 7l-31 -203q-21 -6 -58 -16t-139 -26t-190 -16q-177 0 -261.5 84.5t-84.5 264.5q0 114 19.5 218t63.5 197t108 160.5t159 107.5t211 40q358 0 358 -306q0 -100 -32.5 -166.5t-105 -105t-175 -54.5t-254.5 -16h-72q-6 -24 -6 -69
q0 -59 42.5 -90t107.5 -31zM477 602h84q142 0 198 31t56 104q0 48 -25 68t-77 20q-183 0 -236 -223zM500 1528h248q-8 -90 86 -90q95 0 129 90h247q-52 -156 -159 -238t-287 -82q-308 0 -264 320z" />
    <glyph glyph-name="Edotaccent" unicode="&#x116;" horiz-adv-x="1017" 
d="M754 1579l65 283h242l-70 -283h-237zM133 0l320 1393h817l-58 -246h-532l-76 -328h422l-57 -246h-420l-76 -327h535l-56 -246h-819z" />
    <glyph glyph-name="edotaccent" unicode="&#x117;" horiz-adv-x="974" 
d="M590 209q62 0 147 6.5t139 13.5l54 7l-31 -203q-21 -6 -58 -16t-139 -26t-190 -16q-177 0 -261.5 84.5t-84.5 264.5q0 114 19.5 218t63.5 197t108 160.5t159 107.5t211 40q358 0 358 -306q0 -100 -32.5 -166.5t-105 -105t-175 -54.5t-254.5 -16h-72q-6 -24 -6 -69
q0 -59 42.5 -90t107.5 -31zM477 602h84q142 0 198 31t56 104q0 48 -25 68t-77 20q-183 0 -236 -223zM625 1192l65 281h238l-66 -281h-237z" />
    <glyph glyph-name="Eogonek" unicode="&#x118;" horiz-adv-x="1017" 
d="M133 0l320 1393h817l-58 -246h-532l-76 -328h422l-57 -246h-420l-76 -327h535l-56 -246h-24q-45 -33 -90 -85t-45 -83q0 -29 26 -29l76 7l-27 -226q-116 -22 -200 -22q-80 0 -125 40t-45 117q0 70 56 146.5t128 134.5h-549z" />
    <glyph glyph-name="eogonek" unicode="&#x119;" horiz-adv-x="974" 
d="M850 -150l-27 -225q-116 -22 -200 -22q-80 0 -125 40t-45 117q0 95 114 217q-18 -2 -55 -2q-177 0 -261.5 84.5t-84.5 264.5q0 114 19.5 218t63.5 197t108 160.5t159 107.5t211 40q358 0 358 -306q0 -100 -32.5 -166.5t-105 -105t-175 -54.5t-254.5 -16h-72
q-6 -24 -6 -69q0 -59 42.5 -90t107.5 -31q62 0 147 6.5t139 13.5l54 7l-31 -203q-18 -7 -41 -13q-42 -35 -76 -77.5t-34 -69.5q0 -29 26 -29zM477 602h84q142 0 198 31t56 104q0 48 -25 68t-77 20q-183 0 -236 -223z" />
    <glyph glyph-name="Ecaron" unicode="&#x11a;" horiz-adv-x="1017" 
d="M1309 1935l-328 -309h-188l-191 309h270l60 -116l108 116h269zM133 0l320 1393h817l-58 -246h-532l-76 -328h422l-57 -246h-420l-76 -327h535l-56 -246h-819z" />
    <glyph glyph-name="ecaron" unicode="&#x11b;" horiz-adv-x="974" 
d="M590 209q62 0 147 6.5t139 13.5l54 7l-31 -203q-21 -6 -58 -16t-139 -26t-190 -16q-177 0 -261.5 84.5t-84.5 264.5q0 114 19.5 218t63.5 197t108 160.5t159 107.5t211 40q358 0 358 -306q0 -100 -32.5 -166.5t-105 -105t-175 -54.5t-254.5 -16h-72q-6 -24 -6 -69
q0 -59 42.5 -90t107.5 -31zM477 602h84q142 0 198 31t56 104q0 48 -25 68t-77 20q-183 0 -236 -223zM836 1178h-174l-168 358h251l60 -135l108 135h265z" />
    <glyph glyph-name="Gcircumflex" unicode="&#x11c;" horiz-adv-x="1163" 
d="M614 1546l344 359h205l176 -359h-270l-49 131l-119 -131h-287zM774 541l55 233h412l-174 -745q-16 -6 -46 -15t-133 -24t-218 -15q-227 0 -344 110t-117 329q0 159 27.5 304t87 273.5t145.5 222.5t210 148.5t273 54.5q100 0 206.5 -20.5t163.5 -40.5l56 -21l-65 -205
q-203 41 -383 41q-89 0 -163.5 -49t-122.5 -127.5t-81.5 -179.5t-48 -202.5t-14.5 -200.5q0 -191 205 -191q31 0 63.5 2.5t49.5 4.5l16 3l71 310h-131z" />
    <glyph glyph-name="gcircumflex" unicode="&#x11d;" horiz-adv-x="991" 
d="M463 -471q-445 0 -445 281q0 51 21.5 94.5t62 77.5t77.5 56.5t89 47.5q-24 24 -32.5 47.5t-8.5 61.5q0 26 12.5 55.5t30.5 53.5t36.5 44t31.5 32l12 11q-68 40 -103.5 99.5t-35.5 156.5q0 175 116.5 288.5t307.5 113.5q44 0 106 -9.5t102 -18.5l40 -9l299 12l-52 -221
h-118q8 -46 8 -105q0 -157 -121.5 -266.5t-306.5 -109.5q-23 0 -45 2.5t-33 5.5l-10 2q-31 -41 -31 -74q0 -25 39.5 -37t153.5 -28q290 -42 290 -259q0 -183 -132 -294t-361 -111zM559 -18q-158 26 -174 30q-42 -23 -79.5 -62.5t-37.5 -76.5q0 -49 46 -82t143 -33
q241 0 241 144q0 38 -32 52.5t-107 27.5zM606 545q71 0 116.5 48t45.5 118q0 114 -143 114q-72 0 -117 -47.5t-45 -118.5q0 -114 143 -114zM371 1178l344 358h164l176 -358h-250l-49 131l-119 -131h-266z" />
    <glyph glyph-name="Gbreve" unicode="&#x11e;" horiz-adv-x="1163" 
d="M692 1896h269q-1 -4 -1 -8.5t0.5 -9.5t0.5 -8q6 -64 86 -64q95 0 129 90h268q-52 -156 -169.5 -248t-297.5 -92q-139 0 -211 68.5t-78 181.5q-3 38 4 90zM774 541l55 233h412l-174 -745q-16 -6 -46 -15t-133 -24t-218 -15q-227 0 -344 110t-117 329q0 159 27.5 304
t87 273.5t145.5 222.5t210 148.5t273 54.5q100 0 206.5 -20.5t163.5 -40.5l56 -21l-65 -205q-203 41 -383 41q-89 0 -163.5 -49t-122.5 -127.5t-81.5 -179.5t-48 -202.5t-14.5 -200.5q0 -191 205 -191q31 0 63.5 2.5t49.5 4.5l16 3l71 310h-131z" />
    <glyph glyph-name="gbreve" unicode="&#x11f;" horiz-adv-x="991" 
d="M463 -471q-445 0 -445 281q0 51 21.5 94.5t62 77.5t77.5 56.5t89 47.5q-24 24 -32.5 47.5t-8.5 61.5q0 26 12.5 55.5t30.5 53.5t36.5 44t31.5 32l12 11q-68 40 -103.5 99.5t-35.5 156.5q0 175 116.5 288.5t307.5 113.5q44 0 106 -9.5t102 -18.5l40 -9l299 12l-52 -221
h-118q8 -46 8 -105q0 -157 -121.5 -266.5t-306.5 -109.5q-23 0 -45 2.5t-33 5.5l-10 2q-31 -41 -31 -74q0 -25 39.5 -37t153.5 -28q290 -42 290 -259q0 -183 -132 -294t-361 -111zM559 -18q-158 26 -174 30q-42 -23 -79.5 -62.5t-37.5 -76.5q0 -49 46 -82t143 -33
q241 0 241 144q0 38 -32 52.5t-107 27.5zM606 545q71 0 116.5 48t45.5 118q0 114 -143 114q-72 0 -117 -47.5t-45 -118.5q0 -114 143 -114zM457 1528h248q-8 -90 86 -90q95 0 129 90h247q-52 -156 -159 -238t-287 -82q-308 0 -264 320z" />
    <glyph glyph-name="Gdotaccent" unicode="&#x120;" horiz-adv-x="1163" 
d="M858 1499l66 281h258l-66 -281h-258zM774 541l55 233h412l-174 -745q-16 -6 -46 -15t-133 -24t-218 -15q-227 0 -344 110t-117 329q0 159 27.5 304t87 273.5t145.5 222.5t210 148.5t273 54.5q100 0 206.5 -20.5t163.5 -40.5l56 -21l-65 -205q-203 41 -383 41
q-89 0 -163.5 -49t-122.5 -127.5t-81.5 -179.5t-48 -202.5t-14.5 -200.5q0 -191 205 -191q31 0 63.5 2.5t49.5 4.5l16 3l71 310h-131z" />
    <glyph glyph-name="gdotaccent" unicode="&#x121;" horiz-adv-x="991" 
d="M463 -471q-445 0 -445 281q0 51 21.5 94.5t62 77.5t77.5 56.5t89 47.5q-24 24 -32.5 47.5t-8.5 61.5q0 26 12.5 55.5t30.5 53.5t36.5 44t31.5 32l12 11q-68 40 -103.5 99.5t-35.5 156.5q0 175 116.5 288.5t307.5 113.5q44 0 106 -9.5t102 -18.5l40 -9l299 12l-52 -221
h-118q8 -46 8 -105q0 -157 -121.5 -266.5t-306.5 -109.5q-23 0 -45 2.5t-33 5.5l-10 2q-31 -41 -31 -74q0 -25 39.5 -37t153.5 -28q290 -42 290 -259q0 -183 -132 -294t-361 -111zM559 -18q-158 26 -174 30q-42 -23 -79.5 -62.5t-37.5 -76.5q0 -49 46 -82t143 -33
q241 0 241 144q0 38 -32 52.5t-107 27.5zM606 545q71 0 116.5 48t45.5 118q0 114 -143 114q-72 0 -117 -47.5t-45 -118.5q0 -114 143 -114zM602 1192l66 281h237l-65 -281h-238z" />
    <glyph glyph-name="Gcommaaccent" unicode="&#x122;" horiz-adv-x="1163" 
d="M774 541l55 233h412l-174 -745q-16 -6 -46 -15t-133 -24t-218 -15q-227 0 -344 110t-117 329q0 159 27.5 304t87 273.5t145.5 222.5t210 148.5t273 54.5q100 0 206.5 -20.5t163.5 -40.5l56 -21l-65 -205q-203 41 -383 41q-89 0 -163.5 -49t-122.5 -127.5t-81.5 -179.5
t-48 -202.5t-14.5 -200.5q0 -191 205 -191q31 0 63.5 2.5t49.5 4.5l16 3l71 310h-131zM477 -147l-198 -486h231l219 486h-252z" />
    <glyph glyph-name="gcommaaccent" unicode="&#x123;" horiz-adv-x="991" 
d="M805 1667h233l-200 -483h-252zM463 -471q-445 0 -445 281q0 51 21.5 94.5t62 77.5t77.5 56.5t89 47.5q-24 24 -32.5 47.5t-8.5 61.5q0 26 12.5 55.5t30.5 53.5t36.5 44t31.5 32l12 11q-68 40 -103.5 99.5t-35.5 156.5q0 175 116.5 288.5t307.5 113.5q44 0 106 -9.5
t102 -18.5l40 -9l299 12l-52 -221h-118q8 -46 8 -105q0 -157 -121.5 -266.5t-306.5 -109.5q-23 0 -45 2.5t-33 5.5l-10 2q-31 -41 -31 -74q0 -25 39.5 -37t153.5 -28q290 -42 290 -259q0 -183 -132 -294t-361 -111zM559 -18q-158 26 -174 30q-42 -23 -79.5 -62.5
t-37.5 -76.5q0 -49 46 -82t143 -33q241 0 241 144q0 38 -32 52.5t-107 27.5zM606 545q71 0 116.5 48t45.5 118q0 114 -143 114q-72 0 -117 -47.5t-45 -118.5q0 -114 143 -114z" />
    <glyph glyph-name="Hcircumflex" unicode="&#x124;" horiz-adv-x="1269" 
d="M854 0l135 590h-438l-135 -590h-283l322 1393h282l-129 -557h439l129 557h282l-321 -1393h-283zM631 1595l360 312h164l197 -312h-250l-53 113l-127 -113h-291z" />
    <glyph glyph-name="hcircumflex" unicode="&#x125;" horiz-adv-x="1050" 
d="M387 0h-274l329 1434h275l-115 -506q5 5 14 13t37 29t56.5 37t69.5 29t79 13q131 0 190.5 -79t59.5 -210q0 -71 -43 -258l-115 -502h-274l110 481q37 157 37 211q0 63 -16 91t-66 28q-28 0 -77 -30.5t-84 -61.5l-35 -31zM559 1534l361 311h163l197 -311h-250l-53 113
l-127 -113h-291z" />
    <glyph glyph-name="Hbar" unicode="&#x126;" horiz-adv-x="1286" 
d="M236 985v6l57 238h131l39 164h270l-39 -164h463l39 164h270l-39 -164h132l-62 -244h-125l-227 -985h-271l132 569h-463l-131 -569h-271l228 985h-133zM604 834h463l35 151h-463z" />
    <glyph glyph-name="hbar" unicode="&#x127;" horiz-adv-x="1050" 
d="M256 1085l55 238h105l26 111h275l-25 -111h252l-57 -238h-250l-35 -157q5 5 14 13t37 29t56.5 37t69.5 29t79 13q131 0 190.5 -79t59.5 -210q0 -71 -43 -258l-115 -502h-274l110 481q37 157 37 211q0 63 -16 91t-66 28q-28 0 -77 -30.5t-84 -61.5l-35 -31l-158 -688h-274
l249 1085h-106z" />
    <glyph glyph-name="Itilde" unicode="&#x128;" horiz-adv-x="548" 
d="M1030 1896l4 -192q-5 -5 -14.5 -14t-37.5 -31t-55 -39t-62 -31t-64 -14q-54 0 -163 44t-144 44q-23 0 -66 -20t-74 -40l-32 -20l-9 191q6 5 16 14t39.5 31.5t57 40t63 31.5t62.5 14q53 0 117 -21.5t114.5 -43t69.5 -21.5q23 0 67.5 19.5t77.5 38.5zM133 0l322 1393h282
l-321 -1393h-283z" />
    <glyph glyph-name="itilde" unicode="&#x129;" horiz-adv-x="497" 
d="M113 0l235 1024h275l-236 -1024h-274zM868 1530l9 -191q-6 -5 -15.5 -14t-39 -31.5t-57 -40t-63 -31.5t-63.5 -14q-53 0 -146 45t-120 45q-24 0 -68 -20t-76 -40l-32 -21l-7 188q6 5 15.5 14t39 32t56.5 40.5t62.5 32t62.5 14.5q49 0 104.5 -22t98.5 -44t63 -22
q22 0 66 20t77 40z" />
    <glyph glyph-name="Imacron" unicode="&#x12a;" horiz-adv-x="548" 
d="M307 1673l51 223h670l-51 -223h-670zM133 0l322 1393h282l-321 -1393h-283z" />
    <glyph glyph-name="imacron" unicode="&#x12b;" horiz-adv-x="497" 
d="M113 0l235 1024h275l-236 -1024h-274zM207 1284l51 223h633l-53 -223h-631z" />
    <glyph glyph-name="Ibreve" unicode="&#x12c;" horiz-adv-x="548" 
d="M373 1898h250q-11 -79 71 -79q39 0 67 21.5t42 57.5h250q-33 -95 -78.5 -156.5t-127.5 -99.5t-198 -38q-152 0 -223.5 76.5t-52.5 217.5zM133 0l322 1393h282l-321 -1393h-283z" />
    <glyph glyph-name="ibreve" unicode="&#x12d;" horiz-adv-x="497" 
d="M113 0l235 1024h275l-236 -1024h-274zM229 1528h248q-8 -90 86 -90q95 0 129 90h248q-52 -156 -159 -238t-287 -82q-309 0 -265 320z" />
    <glyph glyph-name="Iogonek" unicode="&#x12e;" horiz-adv-x="548" 
d="M133 0l322 1393h282l-321 -1393q-53 -22 -106.5 -77t-53.5 -91q0 -29 27 -29l75 7l-26 -226q-117 -22 -201 -22q-80 0 -125 40t-45 117q0 70 56 146.5t128 134.5h-12z" />
    <glyph glyph-name="iogonek" unicode="&#x12f;" horiz-adv-x="497" 
d="M322 -190l-27 -226q-117 -22 -201 -22q-80 0 -125 40t-45 117q0 72 58.5 150t130.5 135l235 1020h275l-236 -1024q-57 -29 -112.5 -81.5t-55.5 -86.5q0 -29 27 -29zM371 1130l65 281h277l-64 -281h-278z" />
    <glyph glyph-name="Idotaccent" unicode="&#x130;" horiz-adv-x="548" 
d="M514 1579l66 283h241l-69 -283h-238zM133 0l322 1393h282l-321 -1393h-283z" />
    <glyph glyph-name="dotlessi" unicode="&#x131;" horiz-adv-x="499" 
d="M113 0l235 1024h275l-236 -1024h-274z" />
    <glyph glyph-name="Jcircumflex" unicode="&#x134;" horiz-adv-x="579" 
d="M774 1393l-258 -1117q-23 -99 -42 -161t-48 -112.5t-59.5 -75.5t-84.5 -42t-113.5 -21.5t-156.5 -4.5l47 245q47 2 69 6t44 21.5t34.5 50.5t26.5 94l259 1117h282zM295 1595l360 312h164l197 -312h-250l-53 113l-127 -113h-291z" />
    <glyph glyph-name="jcircumflex" unicode="&#x135;" horiz-adv-x="497" 
d="M113 0l235 1024h275l-236 -1024q-14 -61 -23 -95.5t-24.5 -75t-27.5 -61.5t-38 -50t-50.5 -45.5t-70 -42.5t-91.5 -47.5t-119 -53.5l-86 219q87 45 126.5 68t69.5 53t39 54.5t21 76.5zM164 1178l344 358h164l176 -358h-250l-49 131l-119 -131h-266z" />
    <glyph glyph-name="Kcommaaccent" unicode="&#x136;" horiz-adv-x="1105" 
d="M440 -147l-198 -486h231l219 486h-252zM786 0l-90 559l-155 -14l-125 -545h-283l322 1393h282l-139 -602l131 16l361 586h309l-445 -699l129 -694h-297z" />
    <glyph glyph-name="kcommaaccent" unicode="&#x137;" horiz-adv-x="956" 
d="M152 -633l198 486h252l-219 -486h-231zM387 0h-274l329 1434h275l-185 -797l70 14l260 371h301l-356 -492l135 -530h-280l-99 424l-82 -12z" />
    <glyph glyph-name="Lacute" unicode="&#x139;" horiz-adv-x="864" 
d="M614 1567l-20 217l541 186l20 -246zM858 0h-725l322 1393h282l-264 -1147h440z" />
    <glyph glyph-name="lacute" unicode="&#x13a;" horiz-adv-x="499" 
d="M113 0l329 1434h275l-330 -1434h-274zM481 1567l-20 217l540 186l21 -246z" />
    <glyph glyph-name="Lcommaaccent" unicode="&#x13b;" horiz-adv-x="864" 
d="M338 -147l-199 -486h232l219 486h-252zM858 0h-725l322 1393h282l-264 -1147h440z" />
    <glyph glyph-name="lcommaaccent" unicode="&#x13c;" horiz-adv-x="499" 
d="M94 -147l-198 -486h231l219 486h-252zM113 0l329 1434h275l-330 -1434h-274z" />
    <glyph glyph-name="Lcaron" unicode="&#x13d;" horiz-adv-x="950" 
d="M1208 1393l-123 -514h-251l124 514h250zM858 0h-725l322 1393h282l-264 -1147h440z" />
    <glyph glyph-name="lcaron" unicode="&#x13e;" horiz-adv-x="722" 
d="M1065 1393l-123 -514h-252l125 514h250zM113 0l329 1434h275l-330 -1434h-274z" />
    <glyph glyph-name="Lslash" unicode="&#x141;" horiz-adv-x="866" 
d="M862 0h-725l99 426l-58 -35l-84 191l207 127l158 684h282l-110 -480l196 123l84 -188l-346 -215l-88 -387h441z" />
    <glyph glyph-name="lslash" unicode="&#x142;" horiz-adv-x="598" 
d="M158 0l102 451l-76 -48l-84 191l226 141l161 699h275l-115 -500l82 51l84 -188l-231 -146l-150 -651h-274z" />
    <glyph glyph-name="Nacute" unicode="&#x143;" horiz-adv-x="1333" 
d="M797 1567l-21 217l541 186l20 -246zM133 0l322 1393h448l74 -1092h24l248 1092h273l-322 -1393h-426l-90 1112h-25l-260 -1112h-266z" />
    <glyph glyph-name="nacute" unicode="&#x144;" horiz-adv-x="1050" 
d="M113 0h274l158 688q5 5 14 13.5t35 29.5t49 37t50.5 29.5t45.5 13.5q53 0 68.5 -27.5t15.5 -91.5q0 -54 -37 -211l-110 -481h274l115 502q43 187 43 258q0 131 -59.5 210t-190.5 79q-60 0 -125 -31.5t-100 -62.5l-35 -31l12 100h-262zM590 1180l-21 219l541 186l20 -246z
" />
    <glyph glyph-name="Ncommaaccent" unicode="&#x145;" horiz-adv-x="1333" 
d="M573 -147l-198 -486h231l219 486h-252zM133 0l322 1393h448l74 -1092h24l248 1092h273l-322 -1393h-426l-90 1112h-25l-260 -1112h-266z" />
    <glyph glyph-name="ncommaaccent" unicode="&#x146;" horiz-adv-x="1050" 
d="M387 0h-274l235 1024h262l-12 -100q5 5 14.5 13.5t38 30t58 38t70.5 30t79 13.5q131 0 190.5 -79t59.5 -210q0 -71 -43 -258l-115 -502h-274l110 481q37 157 37 211q0 64 -15.5 91.5t-68.5 27.5q-29 0 -77.5 -30.5t-82.5 -61.5l-34 -31zM197 -633l198 486h252l-219 -486
h-231z" />
    <glyph glyph-name="Ncaron" unicode="&#x147;" horiz-adv-x="1333" 
d="M1413 1896l-328 -309h-188l-190 309h270l59 -116l109 116h268zM133 0l322 1393h448l74 -1092h24l248 1092h273l-322 -1393h-426l-90 1112h-25l-260 -1112h-266z" />
    <glyph glyph-name="ncaron" unicode="&#x148;" horiz-adv-x="1050" 
d="M387 0h-274l235 1024h262l-12 -100q5 5 14.5 13.5t38 30t58 38t70.5 30t79 13.5q131 0 190.5 -79t59.5 -210q0 -71 -43 -258l-115 -502h-274l110 481q37 157 37 211q0 64 -15.5 91.5t-68.5 27.5q-29 0 -77.5 -30.5t-82.5 -61.5l-34 -31zM879 1178h-174l-168 358h251
l60 -135l108 135h265z" />
    <glyph glyph-name="Eng" unicode="&#x14a;" horiz-adv-x="1333" 
d="M1456 1104l-258 -1116q-23 -100 -41.5 -161t-47 -112.5t-57.5 -76t-81.5 -42t-111 -22t-152.5 -4.5l47 246q47 2 69 6t44 21.5t34.5 50.5t26.5 94l2 12h-156l-90 1112h-25l-260 -1112h-266l322 1393h448l74 -1092h22l62 266l188 826h273l-68 -289h2z" />
    <glyph glyph-name="eng" unicode="&#x14b;" horiz-adv-x="1028" 
d="M367 0h-261l242 1022h260l-24 -96q44 34 74 54.5t84 43.5t100 23q205 0 237 -183q22 -126 -26 -329l-125 -521q-34 -141 -82 -227t-137 -154.5t-246 -136.5l-66 234q109 55 157.5 89t72.5 73t41 112l127 531q27 110 18 180q-10 76 -86 76q-28 0 -77.5 -22.5t-84.5 -45.5
l-35 -23z" />
    <glyph glyph-name="Omacron" unicode="&#x14c;" horiz-adv-x="1259" 
d="M694 221q102 0 172 70q97 97 155 292t58 380q0 114 -43 161t-151 47q-105 0 -166 -61q-101 -100 -161 -304t-60 -376q0 -114 43.5 -161.5t152.5 -47.5zM645 -25q-209 0 -323.5 105.5t-114.5 320.5q0 268 81.5 506t237.5 373q158 137 392 137q215 0 333.5 -104t118.5 -322
q0 -182 -34.5 -348.5t-112 -313.5t-189.5 -235q-74 -58 -176 -88.5t-213 -30.5zM649 1651l51 223h670l-51 -223h-670z" />
    <glyph glyph-name="omacron" unicode="&#x14d;" horiz-adv-x="1015" 
d="M682 1047q403 0 403 -388q0 -96 -20.5 -192t-63.5 -185t-103 -157t-145.5 -109t-185.5 -41q-403 0 -403 387q0 95 22 192t66.5 185.5t105 157t145 109.5t179.5 41zM567 209q74 0 132 70t86 172.5t28 212.5q0 71 -33.5 110t-97.5 39q-74 0 -132 -70t-86 -172.5t-28 -212.5
q0 -71 33.5 -110t97.5 -39zM459 1284l51 223h633l-53 -223h-631z" />
    <glyph glyph-name="Obreve" unicode="&#x14e;" horiz-adv-x="1259" 
d="M702 1898h250q-11 -79 72 -79q39 0 67 21.5t42 57.5h249q-24 -71 -55.5 -122t-78.5 -91t-114 -60.5t-155 -20.5q-152 0 -224 76.5t-53 217.5zM694 221q102 0 172 70q97 97 155 292t58 380q0 114 -43 161t-151 47q-105 0 -166 -61q-101 -100 -161 -304t-60 -376
q0 -114 43.5 -161.5t152.5 -47.5zM645 -25q-209 0 -323.5 105.5t-114.5 320.5q0 268 81.5 506t237.5 373q158 137 392 137q215 0 333.5 -104t118.5 -322q0 -182 -34.5 -348.5t-112 -313.5t-189.5 -235q-74 -58 -176 -88.5t-213 -30.5z" />
    <glyph glyph-name="obreve" unicode="&#x14f;" horiz-adv-x="1015" 
d="M682 1047q403 0 403 -388q0 -96 -20.5 -192t-63.5 -185t-103 -157t-145.5 -109t-185.5 -41q-403 0 -403 387q0 95 22 192t66.5 185.5t105 157t145 109.5t179.5 41zM567 209q74 0 132 70t86 172.5t28 212.5q0 71 -33.5 110t-97.5 39q-74 0 -132 -70t-86 -172.5t-28 -212.5
q0 -71 33.5 -110t97.5 -39zM459 1528h248q-8 -90 86 -90q95 0 129 90h247q-52 -156 -159 -238t-287 -82q-308 0 -264 320z" />
    <glyph glyph-name="Ohungarumlaut" unicode="&#x150;" horiz-adv-x="1259" 
d="M1276 1516l-203 81l227 406l224 -92zM858 1518l-205 79l230 408l223 -92zM694 221q102 0 172 70q97 97 155 292t58 380q0 114 -43 161t-151 47q-105 0 -166 -61q-101 -100 -161 -304t-60 -376q0 -114 43.5 -161.5t152.5 -47.5zM645 -25q-209 0 -323.5 105.5t-114.5 320.5
q0 268 81.5 506t237.5 373q158 137 392 137q215 0 333.5 -104t118.5 -322q0 -182 -34.5 -348.5t-112 -313.5t-189.5 -235q-74 -58 -176 -88.5t-213 -30.5z" />
    <glyph glyph-name="ohungarumlaut" unicode="&#x151;" horiz-adv-x="1015" 
d="M682 1047q403 0 403 -388q0 -96 -20.5 -192t-63.5 -185t-103 -157t-145.5 -109t-185.5 -41q-403 0 -403 387q0 95 22 192t66.5 185.5t105 157t145 109.5t179.5 41zM567 209q74 0 132 70t86 172.5t28 212.5q0 71 -33.5 110t-97.5 39q-74 0 -132 -70t-86 -172.5t-28 -212.5
q0 -71 33.5 -110t97.5 -39zM958 1153l-165 133l319 389l182 -137zM561 1153l-164 133l318 387l182 -135z" />
    <glyph glyph-name="OE" unicode="&#x152;" horiz-adv-x="1701" 
d="M1630 0h-821q-158 -25 -238 -25q-182 0 -273.5 84t-102.5 250q-9 167 45 398q89 379 255.5 555t419.5 176q80 0 222 -25h827l-61 -268h-566l-80 -322h451l-59 -256l-449 4l-72 -303h564zM672 246q54 0 190 12l215 897q-105 12 -190 12q-138 0 -224.5 -103t-146.5 -357
q-41 -169 -41 -267q0 -103 46.5 -148.5t150.5 -45.5z" />
    <glyph glyph-name="oe" unicode="&#x153;" horiz-adv-x="1554" 
d="M1163 223q63 0 151.5 4.5t145.5 9.5l58 5l-48 -209q-21 -6 -57.5 -16t-138 -26t-189.5 -16q-200 0 -276 101q-138 -101 -320 -101q-286 0 -325 240q-23 140 16 297q24 93 51.5 166t73 145t103.5 119t143 76t190 29q192 0 279 -111q129 111 311 111q146 0 227 -65t93 -183
q12 -117 -21 -217l-59 -189l-549 4q-12 -54 -4 -92q19 -82 145 -82zM545 219q27 0 51.5 7t43.5 16t36.5 28t29.5 33.5t24.5 41.5t19.5 43t17 47t14 45t12 46q20 75 20 148q0 65 -29.5 97t-99.5 32q-52 0 -92 -21.5t-67.5 -63.5t-46 -90.5t-34.5 -115.5q-34 -142 -18 -211
q19 -82 119 -82zM1069 606l311 -4q23 90 15 131q-6 34 -32 49t-81 15q-92 0 -141 -47t-72 -144z" />
    <glyph glyph-name="Racute" unicode="&#x154;" horiz-adv-x="1144" 
d="M713 442l92 -442h282l-112 481q136 54 223.5 189t87.5 325q0 210 -105 304t-325 94h-401l-322 -1393h283l102 442h195zM995 983q0 -123 -64.5 -211t-174.5 -88h-183l109 467h158q86 0 120.5 -39t34.5 -129zM678 1567l-21 217l541 186l21 -246z" />
    <glyph glyph-name="racute" unicode="&#x155;" horiz-adv-x="684" 
d="M113 0l235 1024h273l-37 -147q7 6 19 16.5t49 37.5t73.5 49t86.5 42.5t93 26.5l-80 -287q-44 -14 -116 -43t-122 -51l-50 -23l-150 -645h-274zM383 1180l-21 219l541 186l21 -246z" />
    <glyph glyph-name="Rcommaaccent" unicode="&#x156;" horiz-adv-x="1144" 
d="M270 -633l199 486h252l-219 -486h-232zM805 0l-92 442h-195l-102 -442h-283l322 1393h401q220 0 325 -94t105 -304q0 -190 -87.5 -325t-223.5 -189l112 -481h-282zM995 983q0 90 -34.5 129t-120.5 39h-158l-109 -467h183q110 0 174.5 88t64.5 211z" />
    <glyph glyph-name="rcommaaccent" unicode="&#x157;" horiz-adv-x="684" 
d="M113 0l235 1024h273l-37 -147q7 6 19 16.5t49 37.5t73.5 49t86.5 42.5t93 26.5l-80 -287q-44 -14 -116 -43t-122 -51l-50 -23l-150 -645h-274zM109 -147l-199 -486h231l219 486h-251z" />
    <glyph glyph-name="Rcaron" unicode="&#x158;" horiz-adv-x="1144" 
d="M1284 1898l-328 -309h-188l-190 309h270l59 -116l109 116h268zM713 442l92 -442h282l-112 481q136 54 223.5 189t87.5 325q0 210 -105 304t-325 94h-401l-322 -1393h283l102 442h195zM995 983q0 -123 -64.5 -211t-174.5 -88h-183l109 467h158q86 0 120.5 -39t34.5 -129z
" />
    <glyph glyph-name="rcaron" unicode="&#x159;" horiz-adv-x="684" 
d="M113 0l235 1024h273l-37 -147q7 6 19 16.5t49 37.5t73.5 49t86.5 42.5t93 26.5l-80 -287q-44 -14 -116 -43t-122 -51l-50 -23l-150 -645h-274zM688 1178h-174l-168 358h252l59 -135l109 135h264z" />
    <glyph glyph-name="Sacute" unicode="&#x15a;" horiz-adv-x="1013" 
d="M1200 1339l-51 -200q-226 37 -369 37q-91 0 -142.5 -50t-51.5 -133q0 -58 33 -89t157 -87q169 -75 224 -148t55 -212q0 -231 -142.5 -356.5t-384.5 -125.5q-96 0 -202.5 21t-165.5 42l-58 21l48 203q231 -41 374 -41q122 0 183 46t61 157q0 58 -36 90t-171 94
q-143 65 -202.5 142t-59.5 211q0 198 129 327t344 129q99 0 206 -19.5t164 -39.5zM694 1567l-20 217l540 186l21 -246z" />
    <glyph glyph-name="sacute" unicode="&#x15b;" horiz-adv-x="884" 
d="M1012 983l-49 -203q-212 33 -345 33q-60 0 -93 -28.5t-33 -71.5q0 -33 29 -51.5t116 -45.5q44 -14 70.5 -23t59 -23t51 -26.5t38.5 -30.5t30 -39t16.5 -48t6.5 -61q0 -192 -125.5 -291t-334.5 -99q-88 0 -177 17.5t-134 35.5l-44 17l51 201q197 -37 334 -37
q150 0 150 100q0 26 -28 41.5t-99 36.5q-145 41 -215 96t-70 158q0 128 61 222t156.5 139t208.5 45q96 0 188.5 -16t136.5 -32zM524 1180l-20 219l540 186l21 -246z" />
    <glyph glyph-name="Scircumflex" unicode="&#x15c;" horiz-adv-x="1013" 
d="M1200 1339l-51 -200q-226 37 -369 37q-91 0 -142.5 -50t-51.5 -133q0 -58 33 -89t157 -87q169 -75 224 -148t55 -212q0 -231 -142.5 -356.5t-384.5 -125.5q-96 0 -202.5 21t-165.5 42l-58 21l48 203q231 -41 374 -41q122 0 183 46t61 157q0 58 -36 90t-171 94
q-143 65 -202.5 142t-59.5 211q0 198 129 327t344 129q99 0 206 -19.5t164 -39.5zM500 1595l360 312h164l197 -312h-250l-53 113l-127 -113h-291z" />
    <glyph glyph-name="scircumflex" unicode="&#x15d;" horiz-adv-x="884" 
d="M1012 983l-49 -203q-212 33 -345 33q-60 0 -93 -28.5t-33 -71.5q0 -33 29 -51.5t116 -45.5q44 -14 70.5 -23t59 -23t51 -26.5t38.5 -30.5t30 -39t16.5 -48t6.5 -61q0 -192 -125.5 -291t-334.5 -99q-88 0 -177 17.5t-134 35.5l-44 17l51 201q197 -37 334 -37
q150 0 150 100q0 26 -28 41.5t-99 36.5q-145 41 -215 96t-70 158q0 128 61 222t156.5 139t208.5 45q96 0 188.5 -16t136.5 -32zM365 1178l344 358h163l177 -358h-250l-49 131l-119 -131h-266z" />
    <glyph glyph-name="Scedilla" unicode="&#x15e;" horiz-adv-x="1013" 
d="M1200 1339l-51 -200q-226 37 -369 37q-91 0 -142.5 -50t-51.5 -133q0 -58 33 -89t157 -87q169 -75 224 -148t55 -212q0 -228 -137.5 -352.5t-372.5 -129.5l-13 -43h13q106 0 156 -41t26 -145q-25 -105 -92 -160t-172 -55q-37 0 -80 6t-67 11l-25 6l41 165q61 -2 94 -2
q74 0 86 50q7 25 -8.5 32.5t-54.5 7.5h-46l37 173q-81 8 -165.5 28t-128.5 36l-44 15l48 203q231 -41 374 -41q122 0 183 46t61 157q0 58 -36 90t-171 94q-143 65 -202.5 142t-59.5 211q0 198 129 327t344 129q99 0 206 -19.5t164 -39.5z" />
    <glyph glyph-name="scedilla" unicode="&#x15f;" horiz-adv-x="888" 
d="M647 -254q-25 -105 -92 -160t-172 -55q-37 0 -80 6t-67 11l-25 6l41 165q61 -2 94 -2q74 0 86 50q7 25 -8.5 32.5t-54.5 7.5h-45l36 173q-68 7 -134 23.5t-98 28.5l-32 13l51 201q197 -37 334 -37q150 0 150 100q0 26 -28 41.5t-99 36.5q-145 41 -215 96t-70 158
q0 128 61 222t156.5 139t208.5 45q96 0 188.5 -16t136.5 -32l44 -16l-49 -203q-211 33 -344 33q-61 0 -94 -28.5t-33 -71.5q0 -33 29 -51.5t116 -45.5q44 -14 70.5 -23t59 -23t51 -26.5t38.5 -30.5t30 -39t16.5 -48t6.5 -61q0 -189 -122 -288t-324 -102l-12 -43h12
q106 0 156 -41t26 -145z" />
    <glyph glyph-name="Scaron" unicode="&#x160;" horiz-adv-x="1013" 
d="M1305 1898l-328 -309h-189l-190 309h270l60 -116l108 116h269zM1200 1339l-51 -200q-226 37 -369 37q-91 0 -142.5 -50t-51.5 -133q0 -58 33 -89t157 -87q169 -75 224 -148t55 -212q0 -231 -142.5 -356.5t-384.5 -125.5q-96 0 -202.5 21t-165.5 42l-58 21l48 203
q231 -41 374 -41q122 0 183 46t61 157q0 58 -36 90t-171 94q-143 65 -202.5 142t-59.5 211q0 198 129 327t344 129q99 0 206 -19.5t164 -39.5z" />
    <glyph glyph-name="scaron" unicode="&#x161;" horiz-adv-x="884" 
d="M1012 983l-49 -203q-212 33 -345 33q-60 0 -93 -28.5t-33 -71.5q0 -33 29 -51.5t116 -45.5q44 -14 70.5 -23t59 -23t51 -26.5t38.5 -30.5t30 -39t16.5 -48t6.5 -61q0 -192 -125.5 -291t-334.5 -99q-88 0 -177 17.5t-134 35.5l-44 17l51 201q197 -37 334 -37
q150 0 150 100q0 26 -28 41.5t-99 36.5q-145 41 -215 96t-70 158q0 128 61 222t156.5 139t208.5 45q96 0 188.5 -16t136.5 -32zM793 1178h-175l-167 358h251l60 -135l108 135h265z" />
    <glyph glyph-name="Tcedilla" unicode="&#x162;" horiz-adv-x="933" 
d="M698 -254q-25 -105 -92 -160t-172 -55q-37 0 -80 6t-68 11l-24 6l41 165q61 -2 94 -2q74 0 86 50q7 25 -8.5 32.5t-54.5 7.5h-45l43 193h-94l264 1147h-305l57 246h897l-57 -246h-310l-264 -1147h-84l-18 -68h12q106 0 156 -41t26 -145z" />
    <glyph glyph-name="tcedilla" unicode="&#x163;" horiz-adv-x="673" 
d="M623 -254q-25 -105 -92.5 -160t-172.5 -55q-37 0 -80 6t-68 11l-24 6l41 165q62 -2 95 -2q74 0 86 50q7 25 -9 32.5t-55 7.5h-45l41 185q-67 23 -102 77.5t-35 127.5q0 81 30 209l91 385h-111l61 233h105l59 262h275l-60 -262h215l-57 -233h-213l-94 -410
q-17 -74 -17 -115q0 -30 14 -43.5t46 -13.5q24 0 58.5 2.5t57.5 4.5l23 3l-22 -196q-105 -46 -224 -48l-12 -43h12q106 0 156.5 -41t26.5 -145z" />
    <glyph glyph-name="Tcaron" unicode="&#x164;" horiz-adv-x="933" 
d="M1219 1898l-328 -309h-189l-190 309h270l60 -116l108 116h269zM283 1147l57 246h897l-57 -246h-310l-264 -1147h-282l264 1147h-305z" />
    <glyph glyph-name="tcaron" unicode="&#x165;" horiz-adv-x="950" 
d="M1292 1393l-123 -514h-251l124 514h250zM811 791h-213l-94 -410q-17 -74 -17 -115q0 -30 14 -43.5t46 -13.5q24 0 58.5 2.5t57.5 4.5l23 3l-22 -196q-12 -5 -33.5 -13t-82 -21.5t-114.5 -13.5q-111 0 -171 63t-60 159q0 81 30 209l91 385h-111l61 233h105l59 262h275
l-60 -262h215z" />
    <glyph glyph-name="Tbar" unicode="&#x166;" horiz-adv-x="944" 
d="M289 1147l57 246h897l-57 -246h-309l-93 -395h263l-60 -244h-258l-117 -508h-282l116 508h-247l55 244h248l92 395h-305z" />
    <glyph glyph-name="tbar" unicode="&#x167;" horiz-adv-x="679" 
d="M815 791h-213l-33 -144h187l-51 -237h-191l-6 -29q-16 -70 -16 -115q0 -30 13.5 -43.5t45.5 -13.5q24 0 58.5 2.5t57.5 4.5l23 3l-22 -196q-12 -5 -33.5 -13t-82 -21.5t-114.5 -13.5q-111 0 -171 63t-60 159q0 77 31 209v4h-103l51 237h107l35 144h-111l62 233h104
l59 262h275l-60 -262h215z" />
    <glyph glyph-name="Utilde" unicode="&#x168;" horiz-adv-x="1218" 
d="M1331 1917l4 -193q-5 -5 -14.5 -14t-37.5 -31t-55 -39t-62 -31t-64 -14q-54 0 -163 44t-144 44q-23 0 -66 -19.5t-75 -39.5l-31 -20l-9 190q6 5 16 14t39.5 31.5t57 40t63 31.5t62.5 14q53 0 117.5 -21.5t114.5 -43t69 -21.5q23 0 67.5 19.5t77.5 39.5zM723 1393
l-213 -920q-18 -77 -18 -135q0 -68 41.5 -92.5t125.5 -24.5q127 0 180.5 56.5t84.5 195.5l213 920h282l-213 -920q-60 -263 -193.5 -380.5t-377.5 -117.5q-198 0 -311 79t-113 237q0 100 27 227l202 875h283z" />
    <glyph glyph-name="utilde" unicode="&#x169;" horiz-adv-x="1050" 
d="M1145 1530l8 -191q-6 -5 -15.5 -14t-39 -31.5t-57 -40t-63 -31.5t-63.5 -14q-53 0 -146 45t-120 45q-24 0 -68 -20t-76 -40l-32 -21l-6 188q6 5 15.5 14t38.5 32t56.5 40.5t62.5 32t62 14.5q49 0 104.5 -22t99 -44t63.5 -22q22 0 66 20t77 40zM899 1024h275l-236 -1024
h-262l12 100q-5 -5 -14.5 -13.5t-38 -30t-58 -38t-70.5 -30t-79 -13.5q-131 0 -190.5 79t-59.5 210q0 77 43 258l115 502h274l-110 -481q-37 -157 -37 -211q0 -62 17.5 -90.5t66.5 -28.5q29 0 77.5 30.5t82.5 61.5l34 31z" />
    <glyph glyph-name="Umacron" unicode="&#x16a;" horiz-adv-x="1218" 
d="M723 1393l-213 -920q-18 -77 -18 -135q0 -68 41.5 -92.5t125.5 -24.5q127 0 180.5 56.5t84.5 195.5l213 920h282l-213 -920q-60 -263 -193.5 -380.5t-377.5 -117.5q-198 0 -311 79t-113 237q0 100 27 227l202 875h283zM625 1651l51 223h670l-52 -223h-669z" />
    <glyph glyph-name="umacron" unicode="&#x16b;" horiz-adv-x="1050" 
d="M899 1024h275l-236 -1024h-262l12 100q-5 -5 -14.5 -13.5t-38 -30t-58 -38t-70.5 -30t-79 -13.5q-131 0 -190.5 79t-59.5 210q0 77 43 258l115 502h274l-110 -481q-37 -157 -37 -211q0 -62 17.5 -90.5t66.5 -28.5q29 0 77.5 30.5t82.5 61.5l34 31zM471 1284l51 223h633
l-53 -223h-631z" />
    <glyph glyph-name="Ubreve" unicode="&#x16c;" horiz-adv-x="1218" 
d="M662 1898h249q-11 -79 72 -79q39 0 67 21.5t42 57.5h249q-24 -71 -55.5 -122t-78.5 -91t-114 -60.5t-155 -20.5q-152 0 -223.5 76.5t-52.5 217.5zM723 1393l-213 -920q-18 -77 -18 -135q0 -68 41.5 -92.5t125.5 -24.5q127 0 180.5 56.5t84.5 195.5l213 920h282l-213 -920
q-60 -263 -193.5 -380.5t-377.5 -117.5q-198 0 -311 79t-113 237q0 100 27 227l202 875h283z" />
    <glyph glyph-name="ubreve" unicode="&#x16d;" horiz-adv-x="1050" 
d="M899 1024h275l-236 -1024h-262l12 100q-5 -5 -14.5 -13.5t-38 -30t-58 -38t-70.5 -30t-79 -13.5q-131 0 -190.5 79t-59.5 210q0 77 43 258l115 502h274l-110 -481q-37 -157 -37 -211q0 -62 17.5 -90.5t66.5 -28.5q29 0 77.5 30.5t82.5 61.5l34 31zM494 1528h247
q-8 -90 86 -90q95 0 129 90h248q-52 -156 -159 -238t-287 -82q-308 0 -264 320z" />
    <glyph glyph-name="Uring" unicode="&#x16e;" horiz-adv-x="1218" 
d="M1268 1710q-28 -117 -116 -178.5t-212 -61.5q-119 0 -178.5 61.5t-30.5 178.5q30 120 117.5 180t210.5 60q117 0 177.5 -59.5t31.5 -180.5zM907 1710q-6 -29 15 -46t61 -17q42 0 71.5 17t35.5 46q8 34 -17.5 49t-58.5 15q-41 0 -70.5 -17.5t-36.5 -46.5zM723 1393
l-213 -920q-18 -77 -18 -135q0 -68 41.5 -92.5t125.5 -24.5q127 0 180.5 56.5t84.5 195.5l213 920h282l-213 -920q-60 -263 -193.5 -380.5t-377.5 -117.5q-198 0 -311 79t-113 237q0 100 27 227l202 875h283z" />
    <glyph glyph-name="uring" unicode="&#x16f;" horiz-adv-x="1050" 
d="M612 1303q24 96 95 157.5t167 61.5q97 0 135 -62.5t15 -159.5q-24 -103 -96 -162t-168 -59q-97 0 -135.5 63.5t-12.5 160.5zM760 1303q-8 -24 5.5 -43t39.5 -19t46 17t28 42q7 25 -7.5 41.5t-37.5 16.5q-26 0 -46 -15t-28 -40zM899 1024h275l-236 -1024h-262l12 100
q-5 -5 -14.5 -13.5t-38 -30t-58 -38t-70.5 -30t-79 -13.5q-131 0 -190.5 79t-59.5 210q0 77 43 258l115 502h274l-110 -481q-37 -157 -37 -211q0 -62 17.5 -90.5t66.5 -28.5q29 0 77.5 30.5t82.5 61.5l34 31z" />
    <glyph glyph-name="Uhungarumlaut" unicode="&#x170;" horiz-adv-x="1218" 
d="M1229 1516l-203 81l227 406l224 -92zM811 1518l-205 79l230 408l223 -92zM723 1393l-213 -920q-18 -77 -18 -135q0 -68 41.5 -92.5t125.5 -24.5q127 0 180.5 56.5t84.5 195.5l213 920h282l-213 -920q-60 -263 -193.5 -380.5t-377.5 -117.5q-198 0 -311 79t-113 237
q0 100 27 227l202 875h283z" />
    <glyph glyph-name="uhungarumlaut" unicode="&#x171;" horiz-adv-x="1050" 
d="M1008 1153l-166 133l319 389l182 -137zM610 1153l-164 133l318 387l182 -135zM899 1024h275l-236 -1024h-262l12 100q-5 -5 -14.5 -13.5t-38 -30t-58 -38t-70.5 -30t-79 -13.5q-131 0 -190.5 79t-59.5 210q0 77 43 258l115 502h274l-110 -481q-37 -157 -37 -211
q0 -62 17.5 -90.5t66.5 -28.5q29 0 77.5 30.5t82.5 61.5l34 31z" />
    <glyph glyph-name="Uogonek" unicode="&#x172;" horiz-adv-x="1224" 
d="M727 1393l-213 -920q-18 -77 -18 -135q0 -68 42 -92.5t126 -24.5q127 0 180 56.5t84 195.5l213 920h282l-213 -920q-51 -224 -155 -341t-283 -146q-43 -34 -80 -80.5t-37 -73.5q0 -29 27 -29l76 7l-27 -226q-117 -22 -201 -22q-80 0 -125 40t-45 117q0 66 49 137.5
t115 127.5q-146 21 -227.5 97t-81.5 210q0 100 27 227l202 875h283z" />
    <glyph glyph-name="uogonek" unicode="&#x173;" horiz-adv-x="1050" 
d="M899 1024h275l-236 -1024q-46 -25 -100 -79.5t-54 -88.5q0 -29 27 -29l76 7l-27 -226q-117 -22 -201 -22q-80 0 -125 40t-45 117q0 72 57.5 149.5t129.5 133.5l12 98q-5 -5 -14.5 -13.5t-38 -30t-58 -38t-70.5 -30t-79 -13.5q-131 0 -190.5 79t-59.5 210q0 77 43 258
l115 502h274l-110 -481q-37 -157 -37 -211q0 -62 17.5 -90.5t66.5 -28.5q29 0 77.5 30.5t82.5 61.5l34 31z" />
    <glyph glyph-name="Wcircumflex" unicode="&#x174;" horiz-adv-x="1771" 
d="M877 1595l360 312h164l196 -312h-249l-54 113l-127 -113h-290zM356 1393h283l-86 -1133h29l462 1112h312l-68 -1112h29l459 1133h282l-596 -1393h-409l67 1012l-405 -1012h-422z" />
    <glyph glyph-name="wcircumflex" unicode="&#x175;" horiz-adv-x="1560" 
d="M276 1024h277l-66 -791h48l325 771h311l-41 -771h48l305 791h276l-418 -1024h-456l39 637l-258 -637h-449zM694 1178l344 358h164l176 -358h-250l-49 131l-118 -131h-267z" />
    <glyph glyph-name="Ycircumflex" unicode="&#x176;" horiz-adv-x="1032" 
d="M514 1595l360 312h164l197 -312h-250l-53 113l-127 -113h-291zM1354 1393l-574 -803l-139 -590h-262l139 602l-194 791h286l99 -543l346 543h299z" />
    <glyph glyph-name="ycircumflex" unicode="&#x177;" horiz-adv-x="950" 
d="M258 1024h268l-28 -797h30l357 797h276l-680 -1454h-272l211 430h-170zM377 1178l344 358h164l176 -358h-250l-49 131l-119 -131h-266z" />
    <glyph glyph-name="Ydieresis" unicode="&#x178;" horiz-adv-x="1032" 
d="M559 1614l64 276h227l-66 -276h-225zM967 1614l63 276h227l-67 -276h-223zM1354 1393l-574 -803l-139 -590h-262l139 602l-194 791h286l99 -543l346 543h299z" />
    <glyph glyph-name="Zacute" unicode="&#x179;" horiz-adv-x="1003" 
d="M647 1567l-20 217l540 186l21 -246zM338 1147l57 246h856l-65 -285l-723 -813l-12 -49h536l-57 -246h-856l63 281l719 817l10 49h-528z" />
    <glyph glyph-name="zacute" unicode="&#x17a;" horiz-adv-x="847" 
d="M309 1024l-59 -233h385l-514 -562l-51 -229h706l60 233h-394l516 564l58 227h-707zM487 1180l-20 219l541 186l20 -246z" />
    <glyph glyph-name="Zdotaccent" unicode="&#x17b;" horiz-adv-x="1003" 
d="M752 1579l65 283h242l-70 -283h-237zM338 1147l57 246h856l-65 -285l-723 -813l-12 -49h536l-57 -246h-856l63 281l719 817l10 49h-528z" />
    <glyph glyph-name="zdotaccent" unicode="&#x17c;" horiz-adv-x="847" 
d="M309 1024l-59 -233h385l-514 -562l-51 -229h706l60 233h-394l516 564l58 227h-707zM565 1192l66 281h237l-65 -281h-238z" />
    <glyph glyph-name="Zcaron" unicode="&#x17d;" horiz-adv-x="1003" 
d="M1290 1898l-327 -309h-189l-190 309h270l59 -116l109 116h268zM338 1147l57 246h856l-65 -285l-723 -813l-12 -49h536l-57 -246h-856l63 281l719 817l10 49h-528z" />
    <glyph glyph-name="zcaron" unicode="&#x17e;" horiz-adv-x="847" 
d="M772 1178h-174l-168 358h252l59 -135l109 135h264zM250 791l59 233h707l-58 -227l-516 -564h394l-60 -233h-706l51 229l514 562h-385z" />
    <glyph glyph-name="florin" unicode="&#x192;" 
d="M844 768l-215 -897q-26 -109 -61.5 -181t-86 -113.5t-111 -58t-145.5 -16.5q-29 0 -76.5 7t-80.5 13l-33 7l49 217q103 -6 158 -6q44 0 73.5 30.5t46.5 100.5l213 897h-180l58 254h182l12 43q63 221 143 303t236 82q119 0 250 -27l-55 -229q-122 4 -183 4
q-57 0 -89 -42.5t-42 -106.5l-4 -27h273l-60 -254h-272z" />
    <glyph glyph-name="Aringacute" unicode="&#x1fa;" horiz-adv-x="1128" 
d="M27 0l614 1364q-9 44 6 104q30 120 117.5 180t210.5 60q117 0 177.5 -59.5t31.5 -180.5q-15 -58 -45 -102l-41 -1366h-283l8 242h-405l-109 -242h-282zM727 1753l-20 219l540 187l21 -246zM819 1147l-295 -660h310l28 660h-43zM823 1468q-6 -29 15 -46t61 -17
q42 0 71.5 17t35.5 46q8 34 -17.5 49t-58.5 15q-41 0 -70.5 -17.5t-36.5 -46.5z" />
    <glyph glyph-name="aringacute" unicode="&#x1fb;" horiz-adv-x="1081" 
d="M748 1552l-23 240l541 186l22 -266zM453 -25q-149 0 -219 101t-70 272q0 88 17.5 180.5t58.5 186.5t99.5 167.5t148 120t196.5 46.5q67 0 195 -17t223 -34l94 -17l-154 -662q-13 -56 -26.5 -134.5t-21.5 -128.5l-7 -50l-272 -10q18 125 26 160q-5 -7 -15 -19.5t-41 -43.5
t-63 -55t-78.5 -43.5t-90.5 -19.5zM692 815q-59 0 -108.5 -46.5t-79.5 -118t-46 -150.5t-16 -152q0 -71 22.5 -105t82.5 -34q37 0 97 45.5t101 91.5l41 45l95 395q-136 29 -189 29zM666 1303q24 96 95 157.5t167 61.5q97 0 134.5 -62.5t14.5 -159.5q-24 -103 -96 -162
t-168 -59q-97 0 -135 63.5t-12 160.5zM813 1303q-8 -24 5.5 -43t39.5 -19t46 17t28 42q7 25 -7.5 41.5t-37.5 16.5q-26 0 -46 -15t-28 -40z" />
    <glyph glyph-name="AEacute" unicode="&#x1fc;" horiz-adv-x="1544" 
d="M641 0l57 244h-292l-109 -244h-268l630 1413h1145l-61 -268l-565 4l-78 -326h450l-59 -256h-453l-71 -301h565l-59 -266h-832zM805 1147l-281 -641h238l149 641h-106zM1012 1567l-21 217l541 186l20 -246z" />
    <glyph glyph-name="aeacute" unicode="&#x1fd;" horiz-adv-x="1462" 
d="M1067 223q63 0 151 4.5t144 9.5l57 5l-47 -209q-21 -6 -57.5 -16t-137 -26t-188.5 -16q-208 0 -284 101q-53 -29 -173.5 -65t-187.5 -36q-85 0 -145 50t-81.5 127.5t-0.5 160.5q59 258 313 305q138 24 285 21q7 21 10 45.5t0.5 49.5t-18 41t-43.5 16q-64 0 -157 -7.5
t-155 -14.5l-61 -7l43 239q260 46 401 46q172 0 234 -84q116 84 272 84q150 0 228.5 -71.5t86.5 -201.5q6 -91 -26 -207l-47 -174l-551 4q-10 -48 -4 -84q17 -90 139 -90zM440 211q92 0 207 27q-10 78 21 196q-52 0 -162 -8q-46 -3 -81.5 -31t-45.5 -73q-9 -40 6 -75.5
t55 -35.5zM979 606l307 -4q19 78 10 131q-17 78 -116 78q-86 0 -130.5 -52t-70.5 -153zM793 1180l-21 219l541 186l20 -246z" />
    <glyph glyph-name="Oslashacute" unicode="&#x1fe;" horiz-adv-x="1263" 
d="M246 -248l-135 82l186 275q-88 108 -88 292q0 268 81.5 506t237.5 373q158 137 392 137q142 0 235 -41l186 273l152 -64l-209 -307q88 -109 88 -287q0 -182 -34.5 -348.5t-112 -313.5t-189.5 -235q-74 -58 -176 -88.5t-213 -30.5q-125 0 -223 39zM795 1546l-23 238
l541 186l22 -266zM696 221q102 0 172 70q97 97 155 292t58 380v16l-213 -313l-288 -424q44 -21 116 -21zM500 410l225 333l276 408q-41 20 -114 20q-105 0 -166 -61q-101 -100 -161 -304t-60 -376v-20z" />
    <glyph glyph-name="oslashacute" unicode="&#x1ff;" horiz-adv-x="1015" 
d="M682 1047q90 0 174 -23l133 217l146 -63l-148 -230q98 -98 98 -289q0 -96 -20.5 -192t-63.5 -185t-103 -157t-145.5 -109t-185.5 -41q-96 0 -176 25l-133 -219l-143 63l147 230q-98 95 -98 288q0 95 22 192t66.5 185.5t105 157t145 109.5t179.5 41zM569 1180l-20 219
l541 186l20 -246zM436 344l129 201l160 262q-21 6 -43 6q-74 0 -132 -70t-86 -172.5t-28 -212.5v-14zM567 209q74 0 132 70t86 172.5t28 212.5v12l-125 -195l-164 -268q24 -4 43 -4z" />
    <glyph glyph-name="Scommaaccent" unicode="&#x218;" horiz-adv-x="1013" 
d="M369 -147l-199 -486h231l220 486h-252zM1200 1339l-51 -200q-226 37 -369 37q-91 0 -142.5 -50t-51.5 -133q0 -58 33 -89t157 -87q169 -75 224 -148t55 -212q0 -231 -142.5 -356.5t-384.5 -125.5q-96 0 -202.5 21t-165.5 42l-58 21l48 203q231 -41 374 -41q122 0 183 46
t61 157q0 58 -36 90t-171 94q-143 65 -202.5 142t-59.5 211q0 198 129 327t344 129q99 0 206 -19.5t164 -39.5z" />
    <glyph glyph-name="scommaaccent" unicode="&#x219;" horiz-adv-x="884" 
d="M1012 983l-49 -203q-212 33 -345 33q-60 0 -93 -28.5t-33 -71.5q0 -33 29 -51.5t116 -45.5q44 -14 70.5 -23t59 -23t51 -26.5t38.5 -30.5t30 -39t16.5 -48t6.5 -61q0 -192 -125.5 -291t-334.5 -99q-88 0 -177 17.5t-134 35.5l-44 17l51 201q197 -37 334 -37
q150 0 150 100q0 26 -28 41.5t-99 36.5q-145 41 -215 96t-70 158q0 128 61 222t156.5 139t208.5 45q96 0 188.5 -16t136.5 -32zM317 -147l-198 -486h231l219 486h-252z" />
    <glyph glyph-name="Tcommaaccent" unicode="&#x21a;" horiz-adv-x="933" 
d="M317 -147l-198 -486h231l219 486h-252zM283 1147l57 246h897l-57 -246h-310l-264 -1147h-282l264 1147h-305z" />
    <glyph glyph-name="tcommaaccent" unicode="&#x21b;" horiz-adv-x="673" 
d="M811 791h-213l-94 -410q-17 -74 -17 -115q0 -30 14 -43.5t46 -13.5q24 0 58.5 2.5t57.5 4.5l23 3l-22 -196q-12 -5 -33.5 -13t-82 -21.5t-114.5 -13.5q-111 0 -171 63t-60 159q0 81 30 209l91 385h-111l61 233h105l59 262h275l-60 -262h215zM229 -147l-198 -486h231
l219 486h-252z" />
    <glyph glyph-name="circumflex" unicode="&#x2c6;" horiz-adv-x="1619" 
d="M723 1178l344 358h164l176 -358h-250l-49 131l-119 -131h-266z" />
    <glyph glyph-name="caron" unicode="&#x2c7;" horiz-adv-x="1619" 
d="M1151 1178h-174l-168 358h252l59 -135l109 135h264z" />
    <glyph glyph-name="breve" unicode="&#x2d8;" horiz-adv-x="946" 
d="M430 1528h248q-8 -90 86 -90q95 0 129 90h248q-52 -155 -159.5 -237.5t-287.5 -82.5q-308 0 -264 320z" />
    <glyph glyph-name="dotaccent" unicode="&#x2d9;" horiz-adv-x="522" 
d="M422 1192l65 281h238l-66 -281h-237z" />
    <glyph glyph-name="ring" unicode="&#x2da;" horiz-adv-x="1619" 
d="M618 1303q24 96 95.5 157.5t167.5 61.5q97 0 134.5 -62.5t14.5 -159.5q-24 -103 -96 -162t-168 -59q-97 0 -135.5 63.5t-12.5 160.5zM766 1303q-8 -24 5.5 -43t39.5 -19t46 17t28 42q7 25 -7.5 41.5t-37.5 16.5q-26 0 -46 -15t-28 -40z" />
    <glyph glyph-name="ogonek" unicode="&#x2db;" horiz-adv-x="921" 
d="M756 -190l-27 -226q-117 -22 -201 -22q-80 0 -125 40t-45 117q0 57 43.5 125t91 112.5t91.5 74.5l221 -21q-43 -26 -97.5 -85.5t-54.5 -92.5q0 -29 27 -29z" />
    <glyph glyph-name="tilde" unicode="&#x2dc;" horiz-adv-x="913" 
d="M1081 1530l9 -191q-6 -5 -15.5 -14t-39 -31.5t-57 -40t-63 -31.5t-63.5 -14q-53 0 -146 45t-120 45q-24 0 -68 -20t-76 -40l-32 -21l-7 188q6 5 15.5 14t39 32t56.5 40.5t62.5 32t62.5 14.5q49 0 104.5 -22t98.5 -44t63 -22q22 0 66 20t77 40z" />
    <glyph glyph-name="hungarumlaut" unicode="&#x2dd;" horiz-adv-x="1411" 
d="M1118 1153l-166 133l320 389l182 -137zM721 1153l-164 133l317 387l183 -135z" />
    <glyph glyph-name="pi" unicode="&#x3c0;" 
d="M786 315v476h-174l-53 -791h-276l65 791q-28 0 -73 -6.5t-76 -13.5l-31 -7v223q131 37 307 37h514q52 0 108 6t85 12l30 7v-226q-49 -22 -151 -28v-480q0 -55 28 -78.5t113 -23.5v-233q-96 0 -160 5t-112.5 21.5t-75 38t-43 62.5t-21 87.5t-4.5 120.5z" />
    <glyph glyph-name="Wgrave" unicode="&#x1e80;" horiz-adv-x="1771" 
d="M1059 1946l454 -187l-124 -215l-465 158zM356 1393h283l-86 -1133h29l462 1112h312l-68 -1112h29l459 1133h282l-596 -1393h-409l67 1012l-405 -1012h-422z" />
    <glyph glyph-name="wgrave" unicode="&#x1e81;" horiz-adv-x="1560" 
d="M827 1581l453 -184l-115 -203l-469 162zM276 1024h277l-66 -791h48l325 771h311l-41 -771h48l305 791h276l-418 -1024h-456l39 637l-258 -637h-449z" />
    <glyph glyph-name="Wacute" unicode="&#x1e82;" horiz-adv-x="1771" 
d="M1028 1567l-20 217l540 186l21 -246zM356 1393h283l-86 -1133h29l462 1112h312l-68 -1112h29l459 1133h282l-596 -1393h-409l67 1012l-405 -1012h-422z" />
    <glyph glyph-name="wacute" unicode="&#x1e83;" horiz-adv-x="1560" 
d="M276 1024h277l-66 -791h48l325 771h311l-41 -771h48l305 791h276l-418 -1024h-456l39 637l-258 -637h-449zM819 1180l-20 219l540 186l21 -246z" />
    <glyph glyph-name="Wdieresis" unicode="&#x1e84;" horiz-adv-x="1771" 
d="M920 1614l63 276h227l-65 -276h-225zM1327 1614l64 276h227l-68 -276h-223zM356 1393h283l-86 -1133h29l462 1112h312l-68 -1112h29l459 1133h282l-596 -1393h-409l67 1012l-405 -1012h-422z" />
    <glyph glyph-name="wdieresis" unicode="&#x1e85;" horiz-adv-x="1560" 
d="M276 1024h277l-66 -791h48l325 771h311l-41 -771h48l305 791h276l-418 -1024h-456l39 637l-258 -637h-449zM729 1231l64 276h227l-66 -276h-225zM1126 1231l64 276h227l-65 -276h-226z" />
    <glyph glyph-name="uni1EAB" unicode="&#x1eab;" horiz-adv-x="1081" 
d="M453 -25q-149 0 -219 101t-70 272q0 88 17.5 180.5t58.5 186.5t99.5 167.5t148 120t196.5 46.5q67 0 195 -17t223 -34l94 -17l-154 -662q-13 -56 -26.5 -134.5t-21.5 -128.5l-7 -50l-272 -10q18 125 26 160q-5 -7 -15 -19.5t-41 -43.5t-63 -55t-78.5 -43.5t-90.5 -19.5z
M692 815q-59 0 -108.5 -46.5t-79.5 -118t-46 -150.5t-16 -152q0 -71 22.5 -105t82.5 -34q37 0 97 45.5t101 91.5l41 45l95 395q-136 29 -189 29zM1286 1858l8 -191q-6 -5 -15.5 -14t-38.5 -31.5t-56.5 -40t-63 -31.5t-63.5 -14q-53 0 -146 45t-120 45q-24 0 -68.5 -20.5
t-76.5 -41.5l-32 -20l-6 189q6 5 15.5 14t39 32t56.5 40.5t62.5 32t62.5 14.5q49 0 104.5 -22t98.5 -44t63 -22q22 0 66 20t77 40zM483 1116l344 359h164l176 -359h-249l-50 131l-118 -131h-267z" />
    <glyph glyph-name="uni1EB0" unicode="&#x1eb0;" horiz-adv-x="1128" 
d="M905 2320l453 -184l-115 -203l-469 162zM27 0l626 1393h488l-43 -1393h-283l8 242h-405l-109 -242h-282zM819 1147l-295 -660h310l28 660h-43zM647 1817h250q-11 -80 72 -80q77 0 108 80h250q-33 -95 -78.5 -157t-127 -100t-197.5 -38q-152 0 -224 77t-53 218z" />
    <glyph glyph-name="uni1EC5" unicode="&#x1ec5;" horiz-adv-x="974" 
d="M1235 1858l8 -191q-6 -5 -15.5 -14t-38.5 -31.5t-56.5 -40t-63 -31.5t-63.5 -14q-53 0 -146.5 45t-120.5 45q-24 0 -68 -20.5t-76 -41.5l-32 -20l-6 189q6 5 15.5 14t39 32t56.5 40.5t62.5 32t62.5 14.5q49 0 104.5 -22t98.5 -44t63 -22q22 0 66 20t77 40zM590 209
q62 0 147 6.5t139 13.5l54 7l-31 -203q-21 -6 -58 -16t-139 -26t-190 -16q-177 0 -261.5 84.5t-84.5 264.5q0 114 19.5 218t63.5 197t108 160.5t159 107.5t211 40q358 0 358 -306q0 -100 -32.5 -166.5t-105 -105t-175 -54.5t-254.5 -16h-72q-6 -24 -6 -69q0 -59 42.5 -90
t107.5 -31zM477 602h84q142 0 198 31t56 104q0 48 -25 68t-77 20q-183 0 -236 -223zM418 1116l344 359h164l176 -359h-250l-49 131l-119 -131h-266z" />
    <glyph glyph-name="uni1ED7" unicode="&#x1ed7;" horiz-adv-x="1015" 
d="M682 1047q403 0 403 -388q0 -96 -20.5 -192t-63.5 -185t-103 -157t-145.5 -109t-185.5 -41q-403 0 -403 387q0 95 22 192t66.5 185.5t105 157t145 109.5t179.5 41zM567 209q74 0 132 70t86 172.5t28 212.5q0 71 -33.5 110t-97.5 39q-74 0 -132 -70t-86 -172.5t-28 -212.5
q0 -71 33.5 -110t97.5 -39zM1223 1858l8 -191q-6 -5 -15.5 -14t-39 -31.5t-57 -40t-63 -31.5t-63.5 -14q-53 0 -146 45t-120 45q-24 0 -68 -20.5t-76 -41.5l-32 -20l-6 189q6 5 15.5 14t38.5 32t56.5 40.5t62.5 32t62 14.5q49 0 104.5 -22t99 -44t63.5 -22q22 0 66 20t77 40
zM414 1116l344 359h164l176 -359h-250l-49 131l-119 -131h-266z" />
    <glyph glyph-name="Ygrave" unicode="&#x1ef2;" horiz-adv-x="1032" 
d="M694 1946l455 -187l-125 -215l-465 158zM1354 1393l-574 -803l-139 -590h-262l139 602l-194 791h286l99 -543l346 543h299z" />
    <glyph glyph-name="ygrave" unicode="&#x1ef3;" horiz-adv-x="950" 
d="M524 1581l453 -184l-115 -203l-469 162zM258 1024h268l-28 -797h30l357 797h276l-680 -1454h-272l211 430h-170z" />
    <glyph glyph-name="uni1EF8" unicode="&#x1ef8;" horiz-adv-x="1032" 
d="M1253 1921l9 -190q-6 -5 -15.5 -14t-39 -32t-57 -40t-63 -31.5t-63.5 -14.5q-42 0 -95 22.5t-99.5 45.5t-71.5 23q-24 0 -68 -20.5t-76 -41.5l-32 -20l-7 188q6 5 15.5 14t39 32t56.5 40.5t62.5 32t62.5 14.5q49 0 104.5 -22t98.5 -44t63 -22q22 0 66 20t77 40z
M1354 1393l-574 -803l-139 -590h-262l139 602l-194 791h286l99 -543l346 543h299z" />
    <glyph glyph-name="uni1EF9" unicode="&#x1ef9;" horiz-adv-x="950" 
d="M1122 1530l8 -191q-6 -5 -15.5 -14t-38.5 -31.5t-56.5 -40t-63 -31.5t-63.5 -14q-53 0 -146 45t-120 45q-24 0 -68 -20t-76 -40l-32 -21l-7 188q6 5 15.5 14t39 32t56.5 40.5t62.5 32t62.5 14.5q49 0 104.5 -22t98.5 -44t63 -22q22 0 66 20t77 40zM258 1024h268l-28 -797
h30l357 797h276l-680 -1454h-272l211 430h-170z" />
    <glyph glyph-name="endash" unicode="&#x2013;" horiz-adv-x="1077" 
d="M154 662h1024v-234h-1024v234z" />
    <glyph glyph-name="emdash" unicode="&#x2014;" horiz-adv-x="2101" 
d="M154 662h2048v-234h-2048v234z" />
    <glyph glyph-name="quoteleft" unicode="&#x2018;" horiz-adv-x="356" 
d="M477 1391h205l-215 -523h-270z" />
    <glyph glyph-name="quoteright" unicode="&#x2019;" horiz-adv-x="356" 
d="M401 870h-204l215 523h270z" />
    <glyph glyph-name="quotesinglbase" unicode="&#x201a;" horiz-adv-x="307" 
d="M70 -338h-205l215 522h270z" />
    <glyph glyph-name="quotedblleft" unicode="&#x201c;" horiz-adv-x="743" 
d="M473 1393h205l-215 -523h-270zM862 1393h205l-215 -523h-270z" />
    <glyph glyph-name="quotedblright" unicode="&#x201d;" horiz-adv-x="745" 
d="M401 870h-204l215 523h270zM791 870h-205l215 523h270z" />
    <glyph glyph-name="quotedblbase" unicode="&#x201e;" horiz-adv-x="710" 
d="M545 174h205l-215 -522h-271zM94 174h205l-215 -522h-270z" />
    <glyph glyph-name="dagger" unicode="&#x2020;" horiz-adv-x="929" 
d="M229 741l62 277h282l82 350h256l-82 -350h279l-59 -277h-283l-211 -884h-254l207 884h-279z" />
    <glyph glyph-name="daggerdbl" unicode="&#x2021;" horiz-adv-x="968" 
d="M322 -143l79 348h-280l63 276h283l61 260h-278l61 277l283 -2l82 352h256l-82 -350h276l-59 -277h-281l-63 -260h283l-66 -276h-283l-82 -348h-253z" />
    <glyph glyph-name="bullet" unicode="&#x2022;" horiz-adv-x="937" 
d="M328 205v573h512v-573h-512z" />
    <glyph glyph-name="ellipsis" unicode="&#x2026;" horiz-adv-x="1257" 
d="M16 0l72 313h279l-72 -313h-279zM487 0l72 313h279l-72 -313h-279zM963 0l71 313h279l-72 -313h-278z" />
    <glyph glyph-name="perthousand" unicode="&#x2030;" horiz-adv-x="1705" 
d="M596 1272q27 0 29 -31t-17 -102q-18 -74 -34.5 -104.5t-43.5 -30.5t-28.5 32t16.5 103q20 75 36 104t42 29zM295 -4l762 1479l164 -48l-760 -1476zM317 1139q-36 -148 8 -223.5t164 -75.5t202 75.5t118 223.5t-8 222.5t-164 74.5t-202 -74.5t-118 -222.5zM707 299
q36 148 117.5 222.5t201.5 74.5t164 -74.5t8 -222.5t-118 -223.5t-201 -75.5q-120 0 -164 75.5t-8 223.5zM907 299q-20 -71 -18 -103t29 -32q26 0 42.5 30t36.5 105q18 71 16.5 102t-28.5 31t-43.5 -29.5t-34.5 -103.5zM1233 299q36 148 117.5 222.5t201.5 74.5t164 -74.5
t8 -222.5t-118 -223.5t-201 -75.5q-120 0 -164 75.5t-8 223.5zM1434 299q-20 -71 -18.5 -103t28.5 -32t43.5 30t36.5 105q18 71 16 102t-29 31t-43 -29.5t-34 -103.5z" />
    <glyph glyph-name="guilsinglleft" unicode="&#x2039;" horiz-adv-x="475" 
d="M668 893l-76 -268l-232 -133l164 -158l-67 -246l-348 346l47 125z" />
    <glyph glyph-name="guilsinglright" unicode="&#x203a;" horiz-adv-x="479" 
d="M39 88l76 268l231 133l-164 158l68 246l348 -346l-47 -125z" />
    <glyph glyph-name="fraction" unicode="&#x2044;" horiz-adv-x="149" 
d="M-66 -66l-258 91l883 1429l258 -90z" />
    <glyph glyph-name="zerosuperior" unicode="&#x2070;" horiz-adv-x="573" 
d="M672 1640q133 0 179.5 -78.5t-1.5 -267.5q-55 -224 -154 -293q-64 -45 -194 -45q-68 0 -111 16t-69 55t-24 104t24 163q55 223 157 297q67 49 193 49zM625 1446q-22 0 -37.5 -28t-40.5 -124q-16 -65 -19 -96.5t2.5 -39t20.5 -7.5q23 0 37 24t37 119q13 51 19 81t5 46
t-6.5 20.5t-17.5 4.5z" />
    <glyph glyph-name="foursuperior" unicode="&#x2074;" horiz-adv-x="573" 
d="M528 979l17 72h-277l45 180l183 387h241l-198 -373h55l76 185h186l-47 -185h22l-49 -194h-22l-17 -72h-215z" />
    <glyph glyph-name="fivesuperior" unicode="&#x2075;" horiz-adv-x="573" 
d="M465 1618h424l-45 -184h-254l-19 -52q60 13 93 13q91 0 128.5 -50t12.5 -153q-32 -121 -103 -174t-196 -53q-47 0 -106 7t-94 14l-36 7l62 174q108 -18 184 -18q53 0 59 31q8 32 -20 32l-55 -8l-154 23z" />
    <glyph glyph-name="sixsuperior" unicode="&#x2076;" horiz-adv-x="573" 
d="M905 1616l-55 -178q-134 12 -191 12q-67 0 -79 -53q48 10 79 10q213 0 160 -215q-62 -236 -303 -236q-269 0 -188 318q22 90 51.5 154.5t73 113.5t104.5 73.5t141 24.5q33 0 84.5 -6t87.5 -12zM575 1231q-11 0 -22 -4.5t-16 -8.5l-5 -4q-7 -29 -1.5 -49t22.5 -20
q15 0 28 11.5t17 31.5q12 43 -23 43z" />
    <glyph glyph-name="sevensuperior" unicode="&#x2077;" horiz-adv-x="573" 
d="M375 1403l53 215h465l-51 -207l-307 -453l-248 43l284 375l7 27h-203z" />
    <glyph glyph-name="eightsuperior" unicode="&#x2078;" horiz-adv-x="573" 
d="M674 1640q128 0 179.5 -47t29.5 -137q-10 -41 -33 -77t-41 -52l-18 -16q2 -2 5.5 -5t12 -15t12 -26.5t6 -39.5t-7.5 -54q-30 -117 -106.5 -166t-208.5 -49q-133 0 -186 49t-23 166q10 41 35 76.5t45 50.5l20 15l-5 5t-9 16t-9.5 28t-3 41t8.5 55q45 182 297 182z
M547 1130q37 0 51 46q6 24 -12 51h-29q-30 -22 -37 -51q-6 -21 0.5 -33.5t26.5 -12.5zM631 1466q-35 0 -47 -39q-5 -21 10 -51h29q27 23 34 51q9 39 -26 39z" />
    <glyph glyph-name="ninesuperior" unicode="&#x2079;" horiz-adv-x="573" 
d="M270 985l58 178q98 -12 176 -12q37 0 55.5 14t22.5 33q1 1 -9.5 -1t-30 -4.5t-34.5 -2.5q-209 0 -156 213q29 114 108 175.5t195 61.5q140 0 183.5 -84.5t1.5 -252.5q-46 -183 -125 -265t-230 -82q-44 0 -97.5 7t-85.5 15zM594 1358q7 0 17.5 3t16.5 6l7 3q20 80 -19 80
q-32 0 -45 -47q-4 -21 3 -33t20 -12z" />
    <glyph glyph-name="zeroinferior" unicode="&#x2080;" horiz-adv-x="573" 
d="M446 662q133 0 180 -79t-1 -268q-55 -223 -154 -292q-66 -46 -195 -46q-68 0 -111 16t-69 55t-24 104t24 163q55 222 158 297q68 50 192 50zM399 467q-22 0 -37 -28t-40 -124q-16 -65 -19 -96.5t2.5 -39t20.5 -7.5q16 0 25 8t20.5 38.5t27.5 96.5q13 51 19 81t5 46
t-6.5 20.5t-17.5 4.5z" />
    <glyph glyph-name="oneinferior" unicode="&#x2081;" horiz-adv-x="573" 
d="M133 281l254 153h197l-158 -639h-217l98 400l-112 -66z" />
    <glyph glyph-name="twoinferior" unicode="&#x2082;" horiz-adv-x="573" 
d="M465 -205h-473l45 185l180 120q62 41 89.5 67t33.5 50q4 18 -12 24.5t-56 6.5q-20 0 -60 -3t-70 -6l-29 -3l43 202q153 19 245 19q126 0 165.5 -47.5t11.5 -157.5q-17 -69 -54.5 -114.5t-111.5 -90.5l-93 -57h193z" />
    <glyph glyph-name="threeinferior" unicode="&#x2083;" horiz-adv-x="573" 
d="M152 438q143 19 225 19q124 0 175 -45t28 -138q-24 -105 -95 -143q64 -31 33 -149q-26 -104 -102 -156.5t-191 -52.5q-44 0 -105 4t-100 8l-38 4l59 191q122 -13 190 -13q33 0 48.5 7.5t19.5 25.5t-6.5 23.5t-40.5 5.5h-135l43 174h131q41 0 49 28q4 18 -8 24.5t-39 6.5
q-34 0 -78 -2.5t-71 -5.5l-27 -2z" />
    <glyph glyph-name="fourinferior" unicode="&#x2084;" horiz-adv-x="573" 
d="M256 -205l16 72h-276l45 180l182 387h242l-199 -373h56l75 185h187l-47 -185h22l-49 -194h-23l-16 -72h-215z" />
    <glyph glyph-name="fiveinferior" unicode="&#x2085;" horiz-adv-x="573" 
d="M182 434h424l-45 -184h-254l-18 -51q59 12 92 12q91 0 128.5 -50t12.5 -153q-32 -121 -103 -174t-196 -53q-47 0 -106 7.5t-94 14.5l-35 7l61 174q108 -19 184 -19q54 0 60 31q9 33 -21 33l-55 -9l-154 23z" />
    <glyph glyph-name="sixinferior" unicode="&#x2086;" horiz-adv-x="573" 
d="M631 432l-56 -178q-133 12 -190 12q-68 0 -80 -53q48 10 80 10q213 0 160 -215q-62 -235 -303 -235q-270 0 -189 317q22 90 51.5 154.5t73.5 114t105 74t141 24.5q33 0 84.5 -6.5t87.5 -12.5zM301 47q-11 0 -22 -4t-16 -8l-5 -4q-7 -29 -1.5 -49.5t22.5 -20.5
q15 0 28 11.5t17 31.5q12 43 -23 43z" />
    <glyph glyph-name="seveninferior" unicode="&#x2087;" horiz-adv-x="573" 
d="M102 219l54 215h465l-52 -207l-307 -452l-248 43l285 375l6 26h-203z" />
    <glyph glyph-name="eightinferior" unicode="&#x2088;" horiz-adv-x="573" 
d="M397 457q127 0 179 -47.5t30 -137.5q-10 -41 -33 -77t-41 -52l-18 -16q2 -2 5.5 -5t12.5 -14.5t12.5 -26.5t6 -39.5t-7.5 -53.5q-30 -117 -107 -166t-209 -49q-133 0 -186 49t-23 166q10 41 35.5 76t45.5 50l20 15l-5 5t-9.5 16t-10 28t-3 41t8.5 55q45 183 297 183z
M270 -53q39 0 52 45q6 23 -13 51h-28q-30 -22 -37 -51q-13 -45 26 -45zM354 283q-35 0 -47 -39q-5 -21 10 -51h29q28 24 35 51q9 39 -27 39z" />
    <glyph glyph-name="nineinferior" unicode="&#x2089;" horiz-adv-x="573" 
d="M-2 -199l57 179q98 -13 176 -13q37 0 55.5 14t22.5 33q1 1 -9.5 -1t-29.5 -4.5t-34 -2.5q-209 0 -156 213q29 114 108 176t195 62q140 0 183 -85t1 -253q-46 -183 -124.5 -264.5t-229.5 -81.5q-44 0 -97.5 7t-85.5 14zM322 174q7 0 17 3t17 6l6 3q20 80 -18 80
q-32 0 -45 -47q-4 -21 3 -33t20 -12z" />
    <glyph glyph-name="Euro" unicode="&#x20ac;" 
d="M1071 240l-22 -211q-184 -54 -336 -54q-204 0 -306 101t-102 293v6h-119l50 215h83q14 82 29 141h-82l51 215h101q41 94 95 169t125.5 135t163.5 93t199 33q73 0 158 -15t133 -29l49 -15l-63 -203q-123 23 -287 23q-163 0 -276 -191h422l-50 -215h-456q-22 -81 -29 -141
h455l-49 -215h-420q3 -160 162 -160q68 0 148.5 6.5t126.5 12.5z" />
    <glyph glyph-name="trademark" unicode="&#x2122;" horiz-adv-x="1411" 
d="M438 1157v162h410v-162h-84v-477h-180v477h-146zM899 678v641h211l84 -324l92 324h209v-641h-168v356l-70 -313h-112l-78 313v-356h-168z" />
    <glyph glyph-name="Omega" unicode="&#x2126;" 
d="M236 215h163q-8 9 -20.5 26t-45 74t-57 119.5t-45 158.5t-20.5 195q0 309 114 448.5t377 139.5t377.5 -139.5t114.5 -448.5q0 -99 -19.5 -194t-47 -160.5t-55 -117t-46.5 -76.5l-20 -25h163v-233h-426v202q7 11 17.5 31.5t38 82t48.5 122t38.5 143t17.5 154.5
q0 96 -4.5 158.5t-16.5 115t-34.5 81t-58 43.5t-87.5 15t-87.5 -15t-58 -43t-34.5 -81t-16 -115t-4 -159q0 -72 16.5 -153t40 -146t47 -119.5t40.5 -84.5l16 -30v-202h-426v233z" />
    <glyph glyph-name="partialdiff" unicode="&#x2202;" 
d="M340 1155l-8 211q19 10 53.5 25.5t131.5 41t185 25.5q277 0 401 -181.5t124 -565.5q0 -376 -123 -552.5t-399 -176.5q-237 0 -359.5 114.5t-122.5 345.5q0 218 117 336.5t332 118.5q62 0 127 -12.5t99 -24.5l34 -12q-12 214 -69 295.5t-208 81.5q-67 0 -145.5 -17.5
t-123.5 -35.5zM707 664q-189 0 -189 -222q0 -227 187 -227q114 0 170.5 95t56.5 308q-9 5 -26 12.5t-75.5 20.5t-123.5 13z" />
    <glyph glyph-name="Delta" unicode="&#x2206;" 
d="M168 213l254 1139h461l252 -1143v-209h-967v213zM680 1122h-55l-185 -889h422z" />
    <glyph glyph-name="product" unicode="&#x220f;" 
d="M879 -369v1680h-232v-1680h-282v1680h-109v245h1022v-245h-117v-1680h-282z" />
    <glyph glyph-name="summation" unicode="&#x2211;" 
d="M684 610l-487 660v286h1024v-245h-725v-31l440 -575v-191l-440 -606v-31h725v-246h-1024v285z" />
    <glyph glyph-name="minus" unicode="&#x2212;" 
d="M244 391v246h893v-246h-893z" />
    <glyph glyph-name="radical" unicode="&#x221a;" 
d="M207 655v246h340l188 -934h27l334 1653h278l-409 -1886h-439l-209 921h-110z" />
    <glyph glyph-name="infinity" unicode="&#x221e;" 
d="M477 248q-139 0 -211.5 87.5t-72.5 260.5q0 176 71.5 264t208.5 88q77 0 135 -36.5t103 -123.5q46 88 102.5 124t134.5 36q137 0 209 -87.5t72 -262.5t-72.5 -262.5t-212.5 -87.5q-76 0 -132.5 35.5t-100.5 122.5q-45 -87 -101.5 -122.5t-132.5 -35.5zM618 598
q-30 59 -52.5 87t-49.5 28q-74 0 -74 -117q0 -113 74 -113q27 0 48.5 27.5t53.5 87.5zM803 598q32 -60 53.5 -87.5t48.5 -27.5q74 0 74 113q0 117 -74 117q-27 0 -49.5 -28t-52.5 -87z" />
    <glyph glyph-name="integral" unicode="&#x222b;" 
d="M852 -33q0 -375 -305 -375q-36 0 -85.5 7t-81.5 13l-32 7l8 225q52 -6 109 -6q59 0 81.5 29.5t22.5 105.5v1241q0 218 67.5 301.5t237.5 83.5q35 0 89 -7t91 -14l36 -7l-9 -225q-65 8 -131 8q-57 0 -77.5 -31.5t-20.5 -110.5v-1245z" />
    <glyph glyph-name="approxequal" unicode="&#x2248;" 
d="M1118 866l19 -219q-5 -4 -13 -11t-34 -25t-52.5 -32t-64 -25t-72.5 -11q-59 0 -222.5 45t-199.5 45q-44 0 -100 -20t-91 -40l-34 -20l-21 219q15 12 40 30t92 47.5t122 29.5q58 0 215.5 -45.5t204.5 -45.5q36 0 89 19.5t88 38.5zM1118 416l19 -219q-5 -4 -13 -11
t-34 -25.5t-52.5 -32t-64 -25t-72.5 -11.5q-59 0 -222.5 45t-199.5 45q-44 0 -100 -20t-91 -40l-34 -20l-21 220q15 12 40 29.5t92 47t122 29.5q58 0 215.5 -45t204.5 -45q36 0 89 19.5t88 38.5z" />
    <glyph glyph-name="notequal" unicode="&#x2260;" 
d="M238 604v248h467l139 315l213 -84l-103 -231h193v-248h-301l-78 -178h379v-248h-488l-129 -293l-213 84l93 209h-172v248h280l78 178h-358z" />
    <glyph glyph-name="lessequal" unicode="&#x2264;" 
d="M1104 791l-557 -101l557 -110v-267l-862 248v238l862 258v-266zM242 39v246h862v-246h-862z" />
    <glyph glyph-name="greaterequal" unicode="&#x2265;" 
d="M823 690l-557 101v266l862 -258v-238l-862 -248v267zM1128 285v-246h-862v246h862z" />
    <glyph glyph-name="lozenge" unicode="&#x25ca;" 
d="M549 0l-305 664l305 688h358l303 -688l-303 -664h-358zM745 233l193 431l-193 454h-34l-195 -454l195 -431h34z" />
    <glyph glyph-name="dotlessj" unicode="&#xf6be;" horiz-adv-x="499" 
d="M113 0l235 1024h275l-236 -1024q-14 -61 -23 -95.5t-24.5 -75t-27.5 -61.5t-38 -50t-50.5 -45.5t-70 -42.5t-91.5 -47.5t-119 -53.5l-86 219q87 45 126.5 68t69.5 53t39 54.5t21 76.5z" />
    <glyph glyph-name="commaaccent" unicode="&#xf6c3;" horiz-adv-x="329" 
d="M-158 -633l199 486h252l-219 -486h-232z" />
    <glyph glyph-name="CR" horiz-adv-x="456" 
 />
    <glyph glyph-name="DLE" horiz-adv-x="0" 
 />
    <glyph glyph-name="zero.pnum" horiz-adv-x="1032" 
d="M760 1042q203 0 303 -88.5t100 -281.5q0 -166 -70 -324t-208 -254q-157 -110 -396 -110q-179 0 -284 84.5t-105 250.5q0 191 82.5 364t233.5 269q143 90 344 90zM700 782q-70 0 -127 -36.5t-91.5 -95.5t-53 -128t-18.5 -139q0 -64 39.5 -102.5t107.5 -38.5
q56 0 102.5 19.5t76.5 49.5t52 70t33.5 76t18.5 73t8.5 56t1.5 30q0 166 -150 166z" />
    <glyph glyph-name="one.pnum" horiz-adv-x="704" 
d="M164 762l475 262h283l-254 -1024h-303l170 684l-293 -158z" />
    <glyph glyph-name="two.pnum" horiz-adv-x="864" 
d="M854 0h-848l62 252l217 145q147 97 264 191t117 135q0 26 -31.5 38.5t-112.5 12.5q-62 0 -140.5 -7.5t-126.5 -15t-48 -8.5l45 246q217 53 407 53q92 0 160.5 -21t107 -57.5t56.5 -79t18 -91.5q0 -67 -17 -121t-55.5 -101t-81 -82.5t-110.5 -82.5l-205 -142h388z" />
    <glyph glyph-name="three.pnum" horiz-adv-x="874" 
d="M260 993q235 51 399 51q110 0 188 -20.5t116.5 -55t54.5 -70.5t16 -77q0 -70 -21 -124.5t-56 -87t-70 -51t-74 -26.5q68 -19 101.5 -60t33.5 -93q0 -59 -16.5 -113.5t-56.5 -107t-99 -91t-150.5 -62t-205.5 -23.5q-84 0 -188 12t-166 24l-62 11l86 239q230 -22 365 -22
q101 0 157 19.5t56 70.5q0 53 -162 53h-262l61 246h262q172 0 172 88q0 31 -31.5 44t-115.5 13q-69 0 -160.5 -6t-147.5 -12l-57 -6z" />
    <glyph glyph-name="four.pnum" horiz-adv-x="958" 
d="M537 0l43 172h-539l55 211l465 641h326l-447 -604h203l55 225h283l-55 -225h125l-60 -248h-129l-43 -172h-282z" />
    <glyph glyph-name="five.pnum" horiz-adv-x="944" 
d="M328 1024h809l-68 -270h-555l-61 -127q92 30 190 30q85 0 149.5 -13t117 -43.5t80.5 -87t28 -138.5q0 -183 -137.5 -288t-395.5 -105q-81 0 -199.5 16.5t-197.5 33.5l-78 17l86 248q270 -66 422 -66q205 0 205 109q0 41 -38 60.5t-126 19.5q-37 0 -92 -10t-91 -20l-36 -9
l-205 47z" />
    <glyph glyph-name="six.pnum" horiz-adv-x="946" 
d="M1128 987l-79 -219q-156 31 -320 31q-131 0 -196.5 -45.5t-94.5 -155.5q108 53 242 53q183 0 262.5 -63t79.5 -191q0 -194 -131 -305.5t-410 -111.5q-189 0 -282 96.5t-93 257.5q0 150 46 281t128.5 226.5t205 150.5t268.5 55q68 0 161.5 -15t152.5 -30zM598 426
q-54 0 -107.5 -12t-80.5 -24l-27 -11q-4 -16 -4 -33q0 -143 162 -143q107 0 155.5 40t48.5 107q0 39 -34.5 57.5t-112.5 18.5z" />
    <glyph glyph-name="seven.pnum" horiz-adv-x="841" 
d="M180 772l66 254h827l-84 -342l-610 -735l-229 129l534 627l18 67h-522z" />
    <glyph glyph-name="eight.pnum" horiz-adv-x="978" 
d="M739 1042q192 0 297 -68t105 -167q0 -86 -52 -154t-153 -110q111 -86 111 -197q0 -55 -16.5 -105t-58 -98.5t-104.5 -84t-164 -57t-229 -21.5q-193 0 -303.5 68.5t-110.5 174.5q0 104 65 186t177 134q-100 76 -100 166q0 64 34 123t98.5 106.5t169 75.5t234.5 28z
M541 240q207 0 207 106q0 52 -74 64h-180q-59 -8 -87 -38t-28 -63q0 -69 162 -69zM680 803q-50 0 -86 -8t-53 -17.5t-26.5 -25t-11 -24.5t-1.5 -21q0 -37 53 -58h180q92 32 92 94q0 60 -147 60z" />
    <glyph glyph-name="nine.pnum" horiz-adv-x="940" 
d="M49 39l80 219q156 -31 320 -31q131 0 195.5 45.5t94.5 155.5q-130 -53 -241 -53q-183 0 -262.5 63t-79.5 191q0 60 19.5 118.5t62.5 113t104.5 95.5t153 66t200.5 25q189 0 282 -97t93 -258q0 -202 -78 -363t-226.5 -255t-342.5 -94q-68 0 -161.5 15t-153.5 29zM580 600
q54 0 107.5 12t80.5 24l27 11q4 16 4 33q0 143 -162 143q-107 0 -156 -40t-49 -107q0 -39 35 -57.5t113 -18.5z" />
    <glyph glyph-name="questiondown.cap" horiz-adv-x="774" 
d="M90 336q0 97 32.5 168.5t94 129.5t182.5 142q111 76 127 150l19 82h258q-1 -101 -17 -185q-17 -100 -192 -225q-120 -85 -166.5 -132.5t-46.5 -100.5q0 -64 35.5 -83.5t113.5 -19.5q64 0 137 6t115 12l41 7l-28 -215q-185 -56 -328 -56q-377 0 -377 320zM913 1434
l-77 -344h-279l78 344h278z" />
    <glyph glyph-name="endash.cap" horiz-adv-x="1079" 
d="M168 723h1024v-234h-1024v234z" />
    <glyph glyph-name="emdash.cap" horiz-adv-x="2103" 
d="M168 723h2048v-234h-2048v234z" />
    <glyph glyph-name="periodcentered.cap" horiz-adv-x="311" 
d="M135 506l78 346h276l-77 -346h-277z" />
    <glyph glyph-name="exclamdown.cap" horiz-adv-x="333" 
d="M498 864l-195 -905h-293l230 905h258zM627 1393l-72 -314h-279l72 314h279z" />
    <glyph glyph-name="parenleft.cap" horiz-adv-x="479" 
d="M602 1593h256q-18 -27 -48.5 -76t-108 -197t-137 -292t-108 -337.5t-48.5 -358.5q0 -128 8 -258.5t16 -197.5l8 -66h-262q-7 22 -16.5 64t-26 178t-16.5 280q0 132 26.5 273.5t69 261t94 233.5t103.5 201.5t94.5 154.5t69.5 102z" />
    <glyph glyph-name="parenright.cap" horiz-adv-x="483" 
d="M207 -180h-256q18 27 48.5 76t108 197t137 292t108 337.5t48.5 358.5q0 128 -8 258.5t-16 197.5l-8 67h262q7 -22 16.5 -64t26 -178.5t16.5 -280.5q0 -132 -26.5 -273.5t-69 -261t-94.5 -233.5t-103.5 -201.5t-94 -154.5t-68.5 -102z" />
    <glyph glyph-name="bracketleft.cap" horiz-adv-x="501" 
d="M395 1591h469l-57 -233h-180l-305 -1313h180l-58 -233h-462z" />
    <glyph glyph-name="bracketright.cap" horiz-adv-x="501" 
d="M430 -188h-469l57 233h181l305 1313h-180l57 233h463z" />
    <glyph glyph-name="braceleft.cap" horiz-adv-x="589" 
d="M557 510q0 -40 -46 -195.5t-46 -191.5q0 -46 30.5 -72t88.5 -26l-64 -236q-150 0 -237.5 67.5t-87.5 188.5q0 42 43 203.5t43 202.5q0 101 -138 174l50 194q66 17 107 34.5t64 41t32.5 44t19.5 58.5q6 22 21 96.5t27 138.5l11 64q52 171 160.5 241.5t316.5 78.5l-45 -236
q-84 -7 -125 -44t-57 -103l-49 -258q-29 -117 -83 -176t-161 -97q66 -37 95.5 -79.5t29.5 -112.5z" />
    <glyph glyph-name="braceright.cap" horiz-adv-x="587" 
d="M354 889q0 39 46 195t46 192q0 46 -30 72t-88 26l63 236q150 0 238 -67.5t88 -188.5q0 -42 -43 -203.5t-43 -202.5q0 -102 137 -174l-49 -194q-66 -17 -107 -34.5t-64 -41.5t-32.5 -44.5t-19.5 -58.5q-6 -22 -21 -96.5t-27 -138.5l-12 -64q-51 -171 -159.5 -241
t-317.5 -78l45 235q84 7 124.5 44.5t57.5 103.5l50 258q29 117 82.5 175.5t160.5 96.5q-66 37 -95.5 79.5t-29.5 113.5z" />
    <glyph glyph-name="grave.cap" horiz-adv-x="1050" 
d="M715 1946l454 -187l-125 -215l-464 158z" />
    <glyph glyph-name="caron.cap" horiz-adv-x="946" 
d="M1214 1898l-327 -309h-189l-190 309h270l60 -116l108 116h268z" />
    <glyph glyph-name="tilde.cap" horiz-adv-x="933" 
d="M1212 1917l5 -193q-5 -5 -14.5 -14t-38 -31t-55.5 -39t-62 -31t-64 -14q-54 0 -163 44t-144 44q-23 0 -66 -19.5t-74 -39.5l-32 -20l-8 190q6 5 16 14t39 31.5t56.5 40t63 31.5t62.5 14q53 0 117 -21.5t114.5 -43t69.5 -21.5q23 0 67.5 19.5t77.5 39.5z" />
    <glyph glyph-name="dieresis.cap" horiz-adv-x="839" 
d="M524 1614l64 276h227l-65 -276h-226zM932 1614l63 276h228l-68 -276h-223z" />
    <glyph glyph-name="macron.cap" horiz-adv-x="946" 
d="M510 1651l51 223h670l-51 -223h-670z" />
    <glyph glyph-name="breve.cap" horiz-adv-x="946" 
d="M535 1898h249q-11 -79 72 -79q39 0 67 21.5t42 57.5h249q-24 -71 -55.5 -122t-78.5 -91t-114 -60.5t-155 -20.5q-152 0 -223.5 76.5t-52.5 217.5z" />
    <glyph glyph-name="ring.cap" horiz-adv-x="692" 
d="M926 1468q-28 -117 -116 -178t-212 -61q-119 0 -178.5 61.5t-30.5 177.5q30 120 117.5 180t210.5 60q117 0 177.5 -59.5t31.5 -180.5zM565 1468q-6 -29 15 -46t61 -17q42 0 71.5 17t35.5 46q8 34 -17.5 49t-58.5 15q-41 0 -70.5 -17.5t-36.5 -46.5z" />
    <glyph glyph-name="hungarumlaut.cap" horiz-adv-x="1411" 
d="M1262 1516l-203 81l227 406l223 -92zM844 1518l-205 79l229 408l224 -92z" />
    <glyph glyph-name="dotaccent.cap" horiz-adv-x="522" 
d="M512 1579l66 283h241l-69 -283h-238z" />
    <glyph glyph-name="zero.numr" horiz-adv-x="573" 
d="M621 1436q133 0 179.5 -78.5t-1.5 -267.5q-55 -224 -154 -293q-64 -45 -194 -45q-68 0 -111 16t-69.5 55t-24.5 104t24 163q54 221 158 296q68 50 193 50zM573 1241q-22 0 -37 -27.5t-40 -123.5q-16 -65 -19 -96.5t2.5 -39.5t20.5 -8q23 0 36 24.5t37 119.5
q13 51 19 80.5t5 45.5t-6.5 20.5t-17.5 4.5z" />
    <glyph glyph-name="one.numr" horiz-adv-x="573" 
d="M330 1260l254 153h196l-157 -639h-217l98 400l-113 -66z" />
    <glyph glyph-name="two.numr" horiz-adv-x="573" 
d="M694 774h-473l45 184l180 121q62 41 89.5 67t33.5 50q4 18 -11.5 24.5t-55.5 6.5q-20 0 -60 -3.5t-70 -6.5l-30 -3l43 203q154 19 246 19q126 0 165 -47.5t11 -157.5q-17 -69 -54.5 -114.5t-111.5 -90.5l-92 -57h192z" />
    <glyph glyph-name="three.numr" horiz-adv-x="573" 
d="M387 1417q143 19 225 19q124 0 175 -45t28 -138q-24 -106 -94 -143q64 -31 33 -149q-26 -104 -102 -156.5t-191 -52.5q-44 0 -105 4t-100 8l-39 4l59 190q123 -12 191 -12q33 0 48.5 7.5t19.5 25.5t-7 23.5t-41 5.5h-135l43 174h131q41 0 49 28q4 18 -8 24.5t-39 6.5
q-34 0 -78 -2.5t-71 -4.5l-27 -3z" />
    <glyph glyph-name="four.numr" horiz-adv-x="573" 
d="M481 774l17 72h-277l45 180l183 387h241l-198 -373h55l76 185h186l-47 -185h22l-49 -194h-22l-17 -72h-215z" />
    <glyph glyph-name="five.numr" horiz-adv-x="573" 
d="M418 1413h424l-45 -184h-254l-19 -51q59 12 92 12q91 0 129 -50t13 -153q-32 -121 -103 -174t-196 -53q-47 0 -106 7t-95 14l-35 7l62 175q108 -19 184 -19q53 0 59 31q9 33 -20 33l-55 -9l-154 23z" />
    <glyph glyph-name="six.numr" horiz-adv-x="573" 
d="M852 1411l-55 -178q-134 12 -191 12q-68 0 -80 -53q48 10 80 10q213 0 160 -215q-62 -235 -303 -235q-270 0 -189 317q22 90 51.5 154.5t73.5 114t105 74t141 24.5q33 0 84.5 -6t86.5 -12zM522 1026q-11 0 -22 -4t-16 -8l-5 -4q-7 -29 -1.5 -49.5t22.5 -20.5
q15 0 28 11.5t17 31.5q12 43 -23 43z" />
    <glyph glyph-name="seven.numr" horiz-adv-x="573" 
d="M340 1198l53 215h465l-51 -207l-307 -452l-248 43l285 374l6 27h-203z" />
    <glyph glyph-name="eight.numr" horiz-adv-x="573" 
d="M621 1436q127 0 178.5 -47t29.5 -138q-10 -41 -33 -77t-41 -52l-18 -16q2 -2 5.5 -5t12.5 -14.5t12.5 -26.5t6 -39.5t-7.5 -53.5q-30 -117 -106.5 -166t-208.5 -49q-133 0 -186 49t-23 166q10 41 35 76t45 50l20 15l-5 5t-9 16t-9.5 28t-3 41t8.5 55q45 183 297 183z
M494 926q38 0 51 45q6 23 -13 51h-28q-30 -22 -37 -51q-13 -45 27 -45zM578 1262q-36 0 -48 -39q-5 -20 11 -52h28q28 24 35 52q9 39 -26 39z" />
    <glyph glyph-name="nine.numr" horiz-adv-x="573" 
d="M229 780l58 178q98 -12 176 -12q37 0 55.5 14t22.5 33q1 1 -9.5 -1t-30 -4.5t-34.5 -2.5q-209 0 -156 213q29 114 108 176t195 62q140 0 183.5 -85t1.5 -253q-46 -183 -125 -264.5t-230 -81.5q-44 0 -97.5 7t-85.5 14zM553 1153q7 0 17.5 3t17.5 6l6 3q20 80 -19 80
q-32 0 -45 -47q-4 -21 3 -33t20 -12z" />
    <glyph glyph-name="zero.slash" 
d="M842 1376q120 0 215 -39l194 299l172 -65l-225 -342q84 -107 84 -291q0 -146 -22.5 -281.5t-74 -261t-127.5 -217.5t-191 -147.5t-257 -55.5q-112 0 -204 45l-179 -272l-166 62l209 321q-92 119 -92 295q0 222 53.5 404t145 300t211.5 182t254 64zM813 1116
q-81 0 -146 -58t-104 -153.5t-59.5 -210.5t-20.5 -237l416 639q-33 20 -86 20zM641 236q65 0 121 41t94 107.5t65.5 152.5t40 175t13.5 175l-414 -629q36 -22 80 -22z" />
    <glyph glyph-name="at.cap" horiz-adv-x="1855" 
d="M1282 1653q209 0 364 -46.5t245.5 -127t135 -194t43.5 -242t-40 -275.5q-89 -337 -206 -481t-313 -144q-171 0 -231 90q-67 -34 -184.5 -64t-202.5 -30q-81 0 -140 32.5t-90.5 84.5t-46 121.5t-12 139.5t16.5 142q52 260 179 406.5t337 146.5q102 0 499 -67
q-139 -627 -145 -674q-4 -35 17.5 -51.5t64.5 -16.5q60 0 106.5 87.5t102.5 302.5q20 79 29 143t6.5 131t-22.5 118t-61.5 97.5t-106.5 76t-162.5 47t-223.5 17.5q-344 0 -541 -180t-278 -524q-23 -98 -26.5 -188.5t13.5 -175.5t62 -154.5t114 -122t174.5 -81t239.5 -28.5
q35 0 105 4.5t123 9.5l53 5l-53 -228q-199 -20 -291 -20q-137 0 -254 28t-204.5 79t-155 121.5t-108 156t-60 182.5t-16 201t29.5 211q60 252 158 431t238 290t315.5 162t402.5 51zM965 373q57 -1 126.5 22t122.5 56q7 77 107 499q-136 29 -186 29q-166 0 -238 -320
q-28 -123 -9.5 -203t77.5 -83z" />
    <glyph glyph-name="zero.dnom" horiz-adv-x="573" 
d="M401 457q133 0 179.5 -78.5t-0.5 -267.5q-55 -224 -154 -293q-64 -45 -195 -45q-68 0 -111 16t-69 55t-24 104t24 163q55 222 158 297q67 49 192 49zM354 262q-22 0 -37.5 -28t-40.5 -123q-16 -64 -19 -96t3 -40t21 -8q23 0 36 24.5t37 119.5q13 51 19 80.5t5 45.5
t-6.5 20.5t-17.5 4.5z" />
    <glyph glyph-name="one.dnom" horiz-adv-x="573" 
d="M115 281l254 153h196l-157 -639h-218l99 400l-113 -66z" />
    <glyph glyph-name="two.dnom" horiz-adv-x="573" 
d="M475 -205h-473l45 185l180 120q62 41 89.5 67t33.5 50q4 18 -11.5 24.5t-55.5 6.5l-160 -12l43 202q154 19 246 19q126 0 165 -47.5t11 -157.5q-17 -69 -54.5 -114.5t-111.5 -90.5l-92 -57h192z" />
    <glyph glyph-name="three.dnom" horiz-adv-x="573" 
d="M154 438q143 19 225 19q124 0 175 -45t28 -138q-24 -105 -95 -143q64 -31 33 -149q-26 -104 -102 -156.5t-191 -52.5q-44 0 -105 4t-100 8l-38 4l59 191q122 -13 190 -13q33 0 48.5 7.5t19.5 25.5t-6.5 23.5t-40.5 5.5h-135l43 174h131q41 0 49 28q4 18 -8 24.5t-39 6.5
q-34 0 -78 -2.5t-71 -5.5l-27 -2z" />
    <glyph glyph-name="four.dnom" horiz-adv-x="573" 
d="M262 -205l17 72h-277l45 180l182 387h242l-199 -373h56l75 185h187l-47 -185h22l-49 -194h-22l-17 -72h-215z" />
    <glyph glyph-name="five.dnom" horiz-adv-x="573" 
d="M182 434h424l-45 -184h-254l-18 -51q59 12 92 12q91 0 128.5 -50t12.5 -153q-32 -121 -103 -174t-196 -53q-47 0 -106 7.5t-94 14.5l-35 7l61 174q108 -19 184 -19q54 0 60 31q9 33 -21 33l-55 -9l-154 23z" />
    <glyph glyph-name="six.dnom" horiz-adv-x="573" 
d="M625 432l-56 -178q-133 12 -190 12q-68 0 -80 -53q48 10 80 10q213 0 160 -215q-62 -235 -303 -235q-270 0 -189 317q22 90 51.5 154.5t73.5 114t105 74t141 24.5q33 0 84.5 -6.5t87.5 -12.5zM295 47q-11 0 -22 -4t-16 -8l-5 -4q-14 -70 20 -70q15 0 28 11.5t17 31.5
q12 43 -22 43z" />
    <glyph glyph-name="seven.dnom" horiz-adv-x="573" 
d="M100 219l54 215h464l-51 -207l-307 -452l-248 43l285 375l6 26h-203z" />
    <glyph glyph-name="eight.dnom" horiz-adv-x="573" 
d="M399 457q127 0 179 -47.5t30 -137.5q-10 -41 -33 -77t-41 -52l-18 -16q2 -2 5.5 -5t12.5 -14.5t12.5 -26.5t6 -39.5t-7.5 -53.5q-30 -117 -107 -166t-209 -49q-133 0 -186 49t-23 166q10 41 35.5 76t45.5 50l20 15l-5 5t-9.5 16t-10 28t-3 41t8.5 55q45 183 297 183z
M272 -53q39 0 52 45q6 23 -13 51h-28q-30 -22 -37 -51q-13 -45 26 -45zM356 283q-35 0 -47 -39q-5 -21 10 -51h29q28 24 35 51q9 39 -27 39z" />
    <glyph glyph-name="nine.dnom" horiz-adv-x="573" 
d="M0 -199l57 179q98 -13 176 -13q37 0 55.5 14t22.5 33q1 1 -9.5 -1t-29.5 -4.5t-34 -2.5q-209 0 -156 213q29 114 108 176t195 62q140 0 183 -85t1 -253q-46 -183 -124.5 -264.5t-229.5 -81.5q-44 0 -97.5 7t-85.5 14zM324 174q7 0 17.5 3t16.5 6l7 3q20 80 -19 80
q-32 0 -45 -47q-4 -21 3 -33t20 -12z" />
    <glyph glyph-name="hyphen.cap" horiz-adv-x="546" 
d="M123 481l61 246h518l-61 -246h-518z" />
    <glyph glyph-name="acute.cap.001" horiz-adv-x="1081" 
d="M612 1567l-20 217l541 186l20 -246z" />
    <glyph glyph-name="circumflex.cap.001" horiz-adv-x="946" 
d="M436 1595l361 312h164l196 -312h-250l-53 113l-127 -113h-291z" />
    </font>
</defs>
</svg>
