<?xml version="1.0" standalone="no"?>
<!DOCTYPE svg PUBLIC "-//W3C//DTD SVG 1.1//EN" "http://www.w3.org/Graphics/SVG/1.1/DTD/svg11.dtd" >
<svg xmlns="http://www.w3.org/2000/svg" xmlns:xlink="http://www.w3.org/1999/xlink" version="1.1">
<metadata>
Created by FontForge 20170731 at Wed Mar  1 12:58:55 2023
 By Aleksey,,,
Copyright (c) 2009-2011 by Accademia di Belle Arti di Urbino and students of MA course of Visual design. Some rights reserved.
</metadata>
<defs>
<font id="Titillium-LightItalic" horiz-adv-x="1146" >
  <font-face 
    font-family="Titillium Lt"
    font-weight="300"
    font-style="italic"
    font-stretch="normal"
    units-per-em="2048"
    panose-1="0 0 4 0 0 0 0 0 0 0"
    ascent="1536"
    descent="-512"
    x-height="1024"
    cap-height="1423"
    bbox="-315 -565 2302 2195"
    underline-thickness="61"
    underline-position="-265"
    slope="-13"
    unicode-range="U+0020-F6C3"
  />
<missing-glyph horiz-adv-x="456" 
 />
    <glyph glyph-name=".notdef" horiz-adv-x="456" 
 />
    <glyph glyph-name=".null" horiz-adv-x="0" 
 />
    <glyph glyph-name="nonmarkingreturn" horiz-adv-x="682" 
 />
    <glyph glyph-name="space" unicode=" " horiz-adv-x="450" 
 />
    <glyph glyph-name="exclam" unicode="!" horiz-adv-x="401" 
d="M246 457l223 977h123l-238 -977h-108zM143 0l47 205h125l-47 -205h-125z" />
    <glyph glyph-name="quotedbl" unicode="&#x22;" horiz-adv-x="643" 
d="M662 971h-111l104 452h117zM535 971h-111l104 452h117z" />
    <glyph glyph-name="numbersign" unicode="#" 
d="M1174 377h-234l-92 -377h-115l92 377h-342l-92 -377h-115l93 377h-234l27 106h233l99 402h-234l27 106h233l96 375h115l-96 -375h342l96 375h115l-96 -375h233l-27 -106h-233l-98 -402h233zM852 483l98 402h-342l-98 -402h342z" />
    <glyph glyph-name="dollar" unicode="$" 
d="M1239 1325l-22 -92q-109 19 -220 29l-196 -519q74 -26 119 -48.5t80.5 -56.5t50 -79t14.5 -110q0 -218 -129 -343.5t-350 -125.5q-24 0 -78 4l-86 -230h-90l88 236q-55 5 -110.5 14t-83.5 15l-29 6l22 98q121 -19 242 -29l215 568q-143 48 -205.5 108t-62.5 178
q0 202 130 315t349 113q9 0 29 -1t30 -1l88 234h96l-92 -244q49 -6 99.5 -16t76.5 -16zM942 440q0 81 -38 119t-146 76l-209 -547h45q164 0 256 93.5t92 258.5zM530 956q0 -73 41 -111t146 -75l188 498h-26q-163 0 -256 -79.5t-93 -232.5z" />
    <glyph glyph-name="percent" unicode="%" 
d="M608 1348q63 0 78.5 -48t-10.5 -143q-24 -100 -62.5 -148t-101.5 -48q-61 0 -77 50.5t9 147.5t64 143t100 46zM340 12l704 1434l91 -25l-705 -1431zM342 1159q-36 -145 4 -217t143 -72t179 71.5t112 215.5q36 143 -4.5 212t-144.5 69t-178.5 -68.5t-110.5 -210.5z
M700 289q70 278 289 278q104 0 145.5 -68.5t6.5 -211.5q-36 -143 -112.5 -215t-178.5 -72q-103 0 -144.5 72t-5.5 217zM805 289q-26 -98 -11 -148.5t76 -50.5q63 0 101.5 48.5t64.5 148.5q25 95 9.5 142.5t-78.5 47.5q-62 0 -100 -46t-62 -142z" />
    <glyph glyph-name="ampersand" unicode="&#x26;" horiz-adv-x="1296" 
d="M913 1444q131 0 203 -58t72 -180q0 -160 -102.5 -270.5t-309.5 -187.5l244 -338q78 126 127 282h121q-29 -97 -77.5 -197t-98.5 -173l200 -256l-86 -78l-190 243q-100 -126 -216.5 -188.5t-262.5 -62.5q-196 0 -286.5 79t-90.5 242q0 207 99 330t327 209
q-30 61 -42 101.5t-12 96.5q0 189 101.5 297.5t279.5 108.5zM551 90q115 0 218.5 59t178.5 168l-311 437q-192 -70 -270 -174.5t-78 -270.5q0 -219 262 -219zM659 1036q0 -112 66 -209q180 72 258 159t78 214q0 137 -154 137q-120 0 -184 -84t-64 -217z" />
    <glyph glyph-name="quotesingle" unicode="'" horiz-adv-x="344" 
d="M449 971h-111l104 452h117z" />
    <glyph glyph-name="parenleft" unicode="(" horiz-adv-x="462" 
d="M639 1532h119q-9 -14 -25.5 -40t-63.5 -109.5t-89.5 -169.5t-94.5 -212t-89.5 -246t-63 -262t-25.5 -270q0 -129 7.5 -248.5t14.5 -174.5l7 -54h-115q-5 19 -11.5 56t-18 161t-11.5 260t25.5 282t66 270t89.5 243t97.5 210t89 160.5t66.5 106.5z" />
    <glyph glyph-name="parenright" unicode=")" horiz-adv-x="460" 
d="M119 -242h-119q9 14 25.5 40t63.5 109.5t89.5 169.5t94.5 212t89.5 246t63 262t25.5 270q0 129 -7.5 248.5t-14.5 174.5l-7 54h115q5 -19 11.5 -56t18 -161t11.5 -260t-25.5 -282t-66 -270t-89.5 -243t-97.5 -210t-89 -160.5t-66.5 -106.5z" />
    <glyph glyph-name="asterisk" unicode="*" horiz-adv-x="841" 
d="M999 1053h-274l84 -260l-86 -27l-86 262l-221 -162l-54 72l224 162l-221 162l55 73l221 -161l84 260l88 -29l-84 -262h270v-90z" />
    <glyph glyph-name="plus" unicode="+" 
d="M233 457v114h398v412h117v-412h401v-114h-401v-416h-117v416h-398z" />
    <glyph glyph-name="comma" unicode="," horiz-adv-x="378" 
d="M96 -264h-100l192 469h136z" />
    <glyph glyph-name="hyphen" unicode="-" horiz-adv-x="724" 
d="M223 492l29 114h504l-29 -114h-504z" />
    <glyph glyph-name="period" unicode="." horiz-adv-x="352" 
d="M115 0l47 205h125l-47 -205h-125z" />
    <glyph glyph-name="slash" unicode="/" horiz-adv-x="831" 
d="M203 -14l-115 43l873 1413l116 -43z" />
    <glyph glyph-name="zero" unicode="0" 
d="M844 1372q199 0 301 -99.5t102 -291.5q0 -188 -44 -366t-123.5 -320t-202.5 -228.5t-269 -86.5q-193 0 -295 97.5t-102 284.5q0 118 18.5 237t53.5 232t89.5 211t123 171.5t158 116t190.5 42.5zM842 1262q-98 0 -183 -59t-142.5 -153t-99 -212t-60.5 -236t-19 -225
q0 -145 70 -216t200 -71q97 0 181.5 55t143.5 145t101.5 205.5t63 237t20.5 238.5q0 143 -69.5 217t-206.5 74z" />
    <glyph glyph-name="one" unicode="1" 
d="M492 1083l483 271h110l-311 -1354h-125l275 1198l-400 -219z" />
    <glyph glyph-name="two" unicode="2" 
d="M1004 0h-865l25 102l553 463q76 63 126 107.5t103 99t84 99t50.5 94.5t19.5 98q0 107 -68 154t-205 47q-71 0 -167 -12t-156 -24l-60 -11l13 100q23 6 62.5 15.5t143 25.5t185.5 16q379 0 379 -295q0 -79 -28 -152.5t-85 -143t-117 -125t-149 -126.5l-524 -421h706z" />
    <glyph glyph-name="three" unicode="3" 
d="M444 1221l13 96q22 6 60.5 15t144 24.5t194.5 15.5q182 0 269 -68.5t87 -205.5q0 -140 -78 -235t-208 -144q83 -35 126.5 -98.5t43.5 -176.5q0 -142 -73 -248.5t-196 -161t-276 -54.5q-87 0 -186 17t-155 35l-56 17l28 96q217 -55 379 -55q171 0 289.5 95.5t118.5 250.5
q0 212 -252 215h-266l26 103l266 4q41 0 87.5 14.5t91.5 42.5t81 65t58 86.5t22 102.5q0 101 -59 147t-188 46q-83 0 -181 -10t-155 -20z" />
    <glyph glyph-name="four" unicode="4" 
d="M754 -2l61 262h-653l22 96l664 996h139l-665 -983h518l106 460h125l-106 -460h172l-25 -109h-172l-61 -262h-125z" />
    <glyph glyph-name="five" unicode="5" 
d="M522 1352h762l-24 -111h-660l-158 -489q22 11 59 26.5t128.5 41.5t156.5 26q168 0 259.5 -71.5t91.5 -219.5q0 -158 -75.5 -289.5t-206 -206.5t-286.5 -75q-88 0 -193.5 15.5t-167.5 31.5l-61 16l33 103q225 -56 389 -56q183 0 311 130t128 315q0 95 -64 144.5t-188 49.5
q-68 0 -154.5 -23.5t-139.5 -47.5l-52 -23l-103 18z" />
    <glyph glyph-name="six" unicode="6" 
d="M1292 1333l-37 -104q-165 33 -323 33q-89 0 -166.5 -32.5t-132 -82.5t-100 -120.5t-73.5 -136.5t-50 -140q22 10 60 25.5t141 41t190 25.5q179 0 268.5 -84.5t89.5 -235.5q0 -245 -144.5 -393.5t-398.5 -148.5q-184 0 -282 118t-98 342q0 82 13.5 169.5t42.5 178.5
t70.5 175.5t102 159t132.5 130t166.5 87.5t199.5 32q71 0 153.5 -10t129.5 -20zM764 729q-79 0 -173.5 -22t-148.5 -44l-55 -22q-22 -68 -22 -203q0 -164 63 -256t190 -92q198 0 305 114.5t107 289.5q0 121 -62 178t-204 57z" />
    <glyph glyph-name="seven" unicode="7" 
d="M453 1239l26 113h807l-47 -205l-811 -1170l-113 39l801 1149l17 74h-680z" />
    <glyph glyph-name="eight" unicode="8" 
d="M901 1374q208 0 308 -72t100 -200q0 -130 -90 -239.5t-250 -153.5q60 -22 100.5 -51t61 -63.5t28.5 -68.5t8 -77q0 -47 -14 -101t-55.5 -121.5t-106 -120.5t-178.5 -89.5t-260 -36.5q-418 0 -418 280q0 303 354 449q-95 48 -128 99t-33 136q0 62 19 121.5t63 116
t108.5 98.5t163 68t219.5 26zM582 90q96 0 175 23.5t129.5 60.5t85.5 83.5t49.5 90t14.5 82.5q0 96 -50.5 140.5t-166.5 76.5h-213q-50 -14 -95 -33.5t-90.5 -51t-77.5 -70.5t-52.5 -94t-20.5 -119q0 -90 79.5 -139.5t232.5 -49.5zM872 1262q-112 0 -195.5 -27t-130 -73
t-69 -99t-22.5 -111q0 -68 40 -115t138 -81h213q48 12 99.5 35t104.5 60t87 93t34 121q0 101 -70.5 149t-228.5 48z" />
    <glyph glyph-name="nine" unicode="9" 
d="M160 23l43 110q155 -37 315 -37q188 0 321.5 123.5t198.5 374.5q-28 -9 -74.5 -22t-153.5 -34.5t-171 -21.5q-192 0 -277.5 99t-48.5 300q39 199 194.5 328t371.5 129q222 0 297.5 -170t9.5 -489q-28 -157 -77.5 -280.5t-114 -207.5t-146 -139.5t-170.5 -80.5t-191 -25
q-68 0 -149.5 10.5t-129.5 21.5zM678 631q62 0 159 18.5t163 36.5l67 19q37 170 32 292.5t-68 191t-181 68.5q-149 0 -263.5 -90.5t-146.5 -244.5q-62 -291 238 -291z" />
    <glyph glyph-name="colon" unicode=":" horiz-adv-x="356" 
d="M274 692l48 205h124l-47 -205h-125zM115 0l47 205h125l-47 -205h-125z" />
    <glyph glyph-name="semicolon" unicode=";" horiz-adv-x="423" 
d="M20 -264h101l227 469h-135zM315 692l47 205h125l-47 -205h-125z" />
    <glyph glyph-name="less" unicode="&#x3c;" 
d="M1073 866l-735 -350l735 -356v-131l-860 430v110l860 426v-129z" />
    <glyph glyph-name="equal" unicode="=" 
d="M252 639v115h878v-115h-878zM252 272v115h878v-115h-878z" />
    <glyph glyph-name="greater" unicode="&#x3e;" 
d="M1040 516l-735 350v129l860 -426v-110l-860 -430v131z" />
    <glyph glyph-name="question" unicode="?" horiz-adv-x="839" 
d="M1022 1188q0 -53 -6 -93.5t-24.5 -80.5t-40.5 -71t-66 -73.5t-87.5 -78.5t-117.5 -95q-147 -118 -168 -221l-16 -80h-117q4 60 14 113q26 134 211 276q73 59 114 94.5t79.5 75t56 72t27.5 71t10 85.5q0 79 -56.5 113t-164.5 34q-53 0 -126.5 -9.5t-121.5 -19.5l-47 -10
l6 103q180 51 313 51q150 0 239 -62.5t89 -193.5zM299 2l45 211h127l-47 -211h-125z" />
    <glyph glyph-name="at" unicode="@" horiz-adv-x="1898" 
d="M1309 1473q138 0 247.5 -23.5t186 -65.5t129.5 -104t80.5 -134.5t35.5 -161t-1.5 -180.5t-34.5 -196q-38 -161 -80 -274.5t-84.5 -182t-95.5 -107t-103.5 -51.5t-118.5 -13q-86 0 -135 27.5t-59 92.5q-87 -44 -197 -82t-194 -38q-59 0 -103.5 15.5t-71.5 41t-43.5 63.5
t-22.5 75.5t-5 86t5.5 85t12.5 81.5q110 616 521 616q116 0 374 -49q-36 -138 -102.5 -436.5t-67.5 -372.5q-1 -56 25 -73t88 -17q44 0 77.5 11t70 43.5t67.5 90.5t64 155t65 233q21 92 30 169t4.5 153.5t-26 136.5t-65 113t-110 87.5t-164 54t-222.5 19.5
q-391 0 -611.5 -191t-328.5 -632q-206 -836 574 -836q34 0 103.5 4.5t122.5 8.5l52 5l-20 -110q-195 -21 -287 -21q-150 0 -268.5 30t-197 81t-131.5 124.5t-78.5 155.5t-31 178.5t5 188.5t33.5 191q61 258 153 436t226.5 289t306 160t400.5 49zM913 94q133 -2 347 113
q4 49 52.5 271.5t96.5 426.5q-117 31 -240 31q-157 0 -246.5 -128t-142.5 -382q-14 -65 -16.5 -120t8.5 -105t46.5 -78.5t94.5 -28.5z" />
    <glyph glyph-name="A" unicode="A" horiz-adv-x="1136" 
d="M55 0l727 1423h258l47 -1423h-124l-17 391h-561l-203 -391h-127zM854 1311l-414 -809h506l-26 809h-66z" />
    <glyph glyph-name="B" unicode="B" horiz-adv-x="1183" 
d="M494 1423h450q168 0 251 -63.5t83 -208.5q0 -154 -77.5 -261t-196.5 -153q91 -32 135.5 -89.5t44.5 -155.5q0 -227 -140.5 -359.5t-398.5 -132.5h-479zM791 672h-345l-129 -561h355q181 0 281 101.5t100 276.5q0 53 -19.5 90t-57 57t-82 28t-103.5 8zM922 1313h-330
l-121 -531h340q149 0 243.5 102t94.5 251q0 100 -53 139t-174 39z" />
    <glyph glyph-name="C" unicode="C" horiz-adv-x="1036" 
d="M975 129l-6 -104q-182 -45 -344 -45q-194 0 -291.5 103t-97.5 304q0 111 18.5 229t55.5 237.5t97 225t136 187.5t181.5 130t225.5 48q71 0 155.5 -11t133.5 -23l49 -11l-28 -103q-166 33 -318 33q-92 0 -174.5 -41.5t-144 -112.5t-111.5 -164.5t-81 -198.5t-47.5 -212
t-16.5 -209q0 -152 66 -224.5t210 -72.5q72 0 155 9t130 17z" />
    <glyph glyph-name="D" unicode="D" horiz-adv-x="1243" 
d="M653 0h-487l328 1423h460q190 0 282.5 -101.5t92.5 -320.5q0 -132 -25 -268t-79.5 -268.5t-131.5 -235t-191 -166t-249 -63.5zM1198 1001q0 163 -62.5 236.5t-205.5 73.5h-336l-275 -1198h355q84 0 159.5 41.5t131.5 111.5t101 160t73.5 189.5t43.5 198t15 187.5z" />
    <glyph glyph-name="E" unicode="E" horiz-adv-x="1038" 
d="M166 0l328 1423h784l-27 -112h-657l-123 -529h545l-27 -112h-543l-129 -557h658l-27 -113h-782z" />
    <glyph glyph-name="F" unicode="F" horiz-adv-x="989" 
d="M166 0l328 1423h766l-27 -112h-639l-137 -594h549l-27 -111h-549l-139 -606h-125z" />
    <glyph glyph-name="G" unicode="G" horiz-adv-x="1173" 
d="M825 616l25 109h362l-161 -688q-21 -6 -58.5 -15.5t-142 -25.5t-195.5 -16q-417 0 -417 393q0 153 26.5 302t84.5 289t141 246t204.5 170t266.5 64q90 0 191.5 -15t157.5 -30l56 -15l-33 -98q-207 45 -389 45q-115 0 -213 -61.5t-163 -161t-111.5 -226.5t-67 -257
t-20.5 -254q0 -279 299 -279q56 0 125.5 9t110.5 19l42 9l115 487h-236z" />
    <glyph glyph-name="H" unicode="H" horiz-adv-x="1277" 
d="M987 0l152 659h-697l-151 -659h-125l328 1423h127l-152 -651h696l152 651h125l-328 -1423h-127z" />
    <glyph glyph-name="I" unicode="I" horiz-adv-x="456" 
d="M166 0l328 1423h127l-330 -1423h-125z" />
    <glyph glyph-name="J" unicode="J" horiz-adv-x="532" 
d="M702 1423l-274 -1190q-20 -87 -34.5 -138t-38 -99t-48.5 -71t-68 -41t-95 -23.5t-130 -5.5l21 112q49 1 80.5 4.5t59 16t44 29.5t33 51.5t27.5 74.5t26 105l273 1175h124z" />
    <glyph glyph-name="K" unicode="K" horiz-adv-x="1056" 
d="M885 0l-230 645l-217 -4l-147 -641h-125l328 1423h127l-156 -669l201 4l536 665h144l-580 -718l252 -705h-133z" />
    <glyph glyph-name="L" unicode="L" horiz-adv-x="892" 
d="M879 0h-713l328 1423h127l-304 -1310h586z" />
    <glyph glyph-name="M" unicode="M" horiz-adv-x="1593" 
d="M166 0l328 1423h223l110 -1245l705 1245h225l-330 -1423h-127l306 1311h-23l-711 -1264h-137l-119 1264h-22l-303 -1311h-125z" />
    <glyph glyph-name="N" unicode="N" horiz-adv-x="1280" 
d="M166 0l328 1423h237l248 -1298h43l299 1298h123l-328 -1423h-229l-254 1303h-45l-301 -1303h-121z" />
    <glyph glyph-name="O" unicode="O" horiz-adv-x="1292" 
d="M684 92q143 0 252 86q101 80 174 225.5t105 301.5t32 309q0 165 -75.5 241t-239.5 76q-131 0 -236 -82q-104 -81 -180.5 -230.5t-111.5 -307t-35 -303.5q0 -172 71.5 -244t243.5 -72zM672 -20q-228 0 -330 97.5t-102 325.5q0 260 85 504t240 387q166 150 375 150
q218 0 328 -103.5t110 -320.5q0 -276 -88 -525t-254 -386q-154 -129 -364 -129z" />
    <glyph glyph-name="P" unicode="P" horiz-adv-x="1120" 
d="M750 494h-344l-115 -494h-125l328 1423h458q172 0 251 -79.5t79 -241.5q0 -174 -59 -309.5t-181 -217t-292 -81.5zM432 606h338q126 0 214 70t127.5 179.5t39.5 246.5q0 105 -50.5 156t-164.5 51h-342z" />
    <glyph glyph-name="Q" unicode="Q" horiz-adv-x="1292" 
d="M672 -20q-228 0 -330 97.5t-102 325.5q0 260 85 504t240 387q166 150 375 150q218 0 328 -103.5t110 -320.5q0 -276 -88 -525t-254 -386q-44 -38 -98 -66l96 -297l-119 -39l-92 293q-78 -20 -151 -20zM684 92q143 0 252 86q101 80 174 225.5t105 301.5t32 309
q0 165 -75.5 241t-239.5 76q-131 0 -236 -82q-104 -81 -180.5 -230.5t-111.5 -307t-35 -303.5q0 -172 71.5 -244t243.5 -72z" />
    <glyph glyph-name="R" unicode="R" horiz-adv-x="1159" 
d="M950 0l-157 553h-373l-129 -553h-125l328 1423h442q178 0 265 -76t87 -251q0 -120 -35.5 -218.5t-93.5 -159.5t-120 -97.5t-128 -51.5l166 -569h-127zM1157 1092q0 121 -56 171t-181 50h-326l-150 -649h332q172 0 276.5 119t104.5 309z" />
    <glyph glyph-name="S" unicode="S" horiz-adv-x="1024" 
d="M1210 1391l-22 -97q-214 37 -357 37q-170 0 -267 -83t-97 -244q0 -31 6 -55t22 -44t34 -34t53 -30t67 -27.5t88 -29.5q82 -28 132 -52t88.5 -60t54.5 -84t16 -117q0 -228 -136.5 -359.5t-367.5 -131.5q-84 0 -185.5 12t-161.5 24l-60 11l22 102q239 -37 393 -37
q173 0 270 98.5t97 272.5q0 92 -47 132.5t-190 86.5q-87 28 -139.5 51t-98.5 59t-66 85t-20 118q0 213 137 331t367 118q79 0 171 -13t145 -27z" />
    <glyph glyph-name="T" unicode="T" horiz-adv-x="966" 
d="M322 1311l26 112h922l-27 -112h-397l-303 -1311h-125l301 1311h-397z" />
    <glyph glyph-name="U" unicode="U" horiz-adv-x="1214" 
d="M608 1423l-227 -987q-21 -86 -21 -151q0 -191 285 -191q171 0 259 79.5t126 248.5l232 1001h127l-232 -1003q-53 -225 -173.5 -332.5t-346.5 -107.5q-188 0 -294.5 72t-106.5 218q0 93 22 176l225 977h125z" />
    <glyph glyph-name="V" unicode="V" horiz-adv-x="1110" 
d="M1251 1423h127l-686 -1423h-286l-29 1423h127l18 -1310h99z" />
    <glyph glyph-name="W" unicode="W" horiz-adv-x="1679" 
d="M389 1423h125l-59 -1308h61l574 1288h135l-31 -1288h57l557 1308h127l-612 -1423h-240l33 1206l-534 -1206h-246z" />
    <glyph glyph-name="X" unicode="X" horiz-adv-x="1048" 
d="M508 1423l205 -616l489 616h141l-579 -721l240 -702h-130l-206 610l-496 -610h-141l583 713l-235 710h129z" />
    <glyph glyph-name="Y" unicode="Y" horiz-adv-x="1003" 
d="M1300 1423l-604 -813l-143 -610h-121l143 623l-221 800h127l183 -690l501 690h135z" />
    <glyph glyph-name="Z" unicode="Z" horiz-adv-x="1015" 
d="M385 1311l27 112h852l-45 -190l-967 -1071l-12 -49h716l-26 -113h-852l43 184l964 1069l15 58h-715z" />
    <glyph glyph-name="bracketleft" unicode="[" horiz-adv-x="579" 
d="M487 1530h383l-24 -109h-260l-367 -1562h260l-28 -109h-381z" />
    <glyph glyph-name="backslash" unicode="\" horiz-adv-x="841" 
d="M784 20l-129 -20l-268 1415l129 21z" />
    <glyph glyph-name="bracketright" unicode="]" horiz-adv-x="579" 
d="M389 -248h-383l25 109h260l366 1562h-260l29 109h381z" />
    <glyph glyph-name="asciicircum" unicode="^" 
d="M1016 655l-314 574l-301 -574h-133l377 697h113l391 -697h-133z" />
    <glyph glyph-name="underscore" unicode="_" horiz-adv-x="1232" 
d="M119 -162h919l-30 -123h-916z" />
    <glyph glyph-name="grave" unicode="`" horiz-adv-x="1060" 
d="M651 1503l361 -192l-58 -84l-362 180z" />
    <glyph glyph-name="a" unicode="a" horiz-adv-x="1009" 
d="M442 -20q-129 0 -192.5 75t-63.5 213q0 101 20.5 207.5t63.5 208.5t102.5 182t144.5 129t183 49q56 0 155.5 -12t170.5 -24l72 -13l-156 -665q-14 -57 -28 -139t-22 -135l-7 -54l-119 -4q31 190 39 233q-7 -10 -20.5 -27t-54.5 -60.5t-82 -76.5t-98 -60t-108 -27z
M702 936q-74 0 -138.5 -43.5t-109.5 -113.5t-77.5 -158.5t-48 -179t-15.5 -173.5q0 -90 37.5 -135t126.5 -45q39 0 90 30t96 72t83.5 84.5t61.5 72.5l23 30l125 528q-148 31 -254 31z" />
    <glyph glyph-name="b" unicode="b" horiz-adv-x="1007" 
d="M791 1044q79 0 132.5 -22.5t82 -66t40 -96t11.5 -124.5q0 -56 -9 -121t-28.5 -138.5t-48 -143.5t-71.5 -134t-94 -112.5t-120 -77t-147 -28.5q-69 0 -167.5 12t-162.5 24l-64 13l336 1450h123l-141 -605l18.5 18.5t48.5 40.5t74 51.5t89 41t98 18.5zM537 88
q85 0 155 52.5t113 129t72.5 168.5t41 165.5t11.5 125.5q0 49 -6 82t-23 63.5t-53 45t-92 14.5q-39 0 -86.5 -20t-88 -48t-75 -56.5t-54.5 -48.5l-20 -20l-143 -624q154 -29 248 -29z" />
    <glyph glyph-name="c" unicode="c" horiz-adv-x="827" 
d="M733 1044q49 0 110 -8t97 -16l37 -8l-31 -99q-127 23 -217 23q-82 0 -151 -36.5t-116 -97.5t-80 -143t-48 -172.5t-15 -185.5q0 -106 53 -159.5t173 -53.5q36 0 93.5 8t97.5 16l40 9l-6 -98q-139 -43 -262 -43q-157 0 -235 77t-78 224q0 119 20 229.5t63.5 208
t105.5 169.5t151.5 114t197.5 42z" />
    <glyph glyph-name="d" unicode="d" horiz-adv-x="1009" 
d="M1210 1479l-344 -1479h-118l45 201q-7 -9 -19.5 -24t-51.5 -53t-78.5 -67t-97 -53t-110.5 -24q-250 0 -250 284q0 105 21.5 214t65 210t103.5 180t143 126.5t177 47.5q57 0 127.5 -8.5t112.5 -17.5l41 -8l110 471h123zM827 352l127 553q-137 31 -258 31
q-71 0 -134.5 -43.5t-108 -114.5t-77 -160t-48 -180t-15.5 -174q0 -176 160 -176q43 0 95 27t96 66t82 78t60 66z" />
    <glyph glyph-name="e" unicode="e" horiz-adv-x="937" 
d="M524 90q68 0 152 13t134 25l50 13l-8 -100q-20 -7 -54.5 -17t-129.5 -27t-176 -17q-143 0 -222.5 77t-79.5 226q0 107 20 212.5t64.5 205t107.5 175t156 121t203 45.5q137 0 213 -56.5t76 -176.5q0 -180 -139 -253t-436 -73h-115q-25 -105 -25 -188q0 -98 56.5 -151.5
t152.5 -53.5zM358 584h121q226 0 327 48t101 175q0 70 -43 100.5t-129 30.5q-270 0 -377 -354z" />
    <glyph glyph-name="f" unicode="f" horiz-adv-x="624" 
d="M512 915l-213 -915l-123 -461h-106l319 1376h-123l27 109h119l24 100q50 206 126.5 290.5t215.5 84.5q33 0 75 -6t67 -12l26 -6l-24 -97q-84 15 -152 15q-84 0 -129 -62t-82 -211l-24 -96h290l-28 -109h-285z" />
    <glyph glyph-name="g" unicode="g" horiz-adv-x="950" 
d="M387 -485q-159 0 -252.5 72t-93.5 194q0 56 25 106.5t70 91t86 68t95 55.5q-30 30 -30 84q0 40 27 90t54 80l27 31q-141 63 -141 242q0 57 16.5 115t51.5 112t82.5 96t115 67t144.5 25q47 0 93 -8t69 -16l22 -8l303 12l-25 -109h-198q39 -59 39 -149q0 -55 -16 -111.5
t-51 -110.5t-84.5 -96t-122 -68t-158.5 -26l-62 4q-8 -10 -20 -26.5t-32 -56.5t-20 -66q0 -37 39 -52.5t150 -29.5q171 -21 242 -73.5t71 -166.5q0 -152 -141.5 -262t-374.5 -110zM567 20q-129 16 -180 35q-92 -47 -159.5 -113t-67.5 -135q0 -83 60.5 -134.5t176.5 -51.5
q102 0 189.5 31t141.5 91t54 136q0 69 -47.5 99t-167.5 42zM551 459q75 0 135 30.5t94 77t52 94.5t18 91q0 95 -45 140.5t-150 45.5q-87 0 -153.5 -50t-97.5 -118t-31 -135q0 -176 178 -176z" />
    <glyph glyph-name="h" unicode="h" horiz-adv-x="1013" 
d="M264 0h-123l342 1479h123l-151 -656q7 9 19 24t50.5 53t78 67t95 53t107.5 24q115 0 176 -67.5t61 -183.5q0 -91 -41 -273l-120 -520h-121l121 516q37 162 37 256q0 162 -152 162q-43 0 -94 -26.5t-94 -64.5t-79.5 -76t-57.5 -65l-21 -26z" />
    <glyph glyph-name="i" unicode="i" horiz-adv-x="403" 
d="M139 0l238 1024h123l-238 -1024h-123zM430 1262l39 163h123l-37 -163h-125z" />
    <glyph glyph-name="j" unicode="j" horiz-adv-x="403" 
d="M139 0l238 1024h123l-238 -1024q-20 -85 -33 -133t-36.5 -97t-45.5 -74.5t-67.5 -59t-93.5 -58t-133 -63.5l-41 100q70 36 109 57t76.5 49t54 48t35 57.5t28 73t24.5 100.5zM434 1264l37 159h123l-37 -159h-123z" />
    <glyph glyph-name="k" unicode="k" horiz-adv-x="901" 
d="M264 0h-123l342 1479h123l-200 -871l145 4l399 412h146l-453 -471l209 -553h-131l-193 506l-149 -2z" />
    <glyph glyph-name="l" unicode="l" horiz-adv-x="423" 
d="M152 0l342 1479h120l-342 -1479h-120z" />
    <glyph glyph-name="m" unicode="m" horiz-adv-x="1585" 
d="M879 0h-123l121 516q38 166 38 256q0 77 -38.5 119.5t-112.5 42.5q-43 0 -94.5 -26.5t-94 -64t-78.5 -75t-57 -64.5l-20 -26l-158 -678h-123l238 1024h119l-41 -199q7 9 19 23.5t50 52.5t77 67t95 52.5t109 23.5q59 0 104 -20t67 -48t35.5 -56t16.5 -48l2 -20
q7 8 19.5 21t51.5 46t78 58t93.5 46t103.5 21q116 0 178 -67.5t62 -183.5q0 -78 -41 -273l-121 -520h-123l121 516q39 171 39 254q0 77 -39.5 120.5t-112.5 43.5q-39 0 -84.5 -20.5t-83 -50t-69.5 -59.5t-50 -50l-18 -21q-4 -88 -35 -213z" />
    <glyph glyph-name="n" unicode="n" horiz-adv-x="1011" 
d="M262 0h-123l238 1024h119l-43 -199q7 9 19 23.5t50.5 52.5t78 67t95 52.5t107.5 23.5q116 0 177.5 -67t61.5 -184q0 -91 -41 -269l-122 -524h-121l121 516q39 171 39 256q0 78 -38.5 120t-115.5 42q-43 0 -94.5 -26.5t-94 -64t-78.5 -75t-57 -64.5l-20 -26z" />
    <glyph glyph-name="o" unicode="o" horiz-adv-x="1011" 
d="M707 1042q170 0 257 -84.5t87 -252.5q0 -196 -62.5 -360t-183.5 -264.5t-277 -100.5q-167 0 -251 78.5t-84 244.5q0 198 65 366.5t183.5 270.5t265.5 102zM528 88q117 0 209.5 86t140.5 226.5t48 306.5q0 105 -55 167t-164 62q-113 0 -204 -89.5t-139.5 -233.5
t-48.5 -310q0 -215 213 -215z" />
    <glyph glyph-name="p" unicode="p" horiz-adv-x="1007" 
d="M35 -461l342 1485h119l-45 -203q7 9 19.5 24t51.5 53.5t78 68t94 53.5t105 24q258 0 258 -290q0 -101 -21 -208t-64 -208t-102.5 -181t-143.5 -128.5t-179 -48.5q-57 0 -127.5 9t-111.5 18l-42 9l-110 -477h-121zM766 934q-40 0 -90.5 -27t-94 -66t-81.5 -78t-60 -66
l-22 -27l-129 -551q137 -31 258 -31q72 0 136 44.5t108.5 115.5t77 159t48 176.5t15.5 166.5q0 94 -39.5 139t-126.5 45z" />
    <glyph glyph-name="q" unicode="q" horiz-adv-x="1005" 
d="M442 -20q-128 0 -193 75t-65 211q0 102 21.5 209.5t65 209t103 181t143 128t177.5 48.5q67 0 167.5 -12t167.5 -24l67 -11l-334 -1441h-121l150 647q-7 -9 -19 -24t-50.5 -53t-77.5 -67t-94.5 -53t-107.5 -24zM694 936q-87 0 -162 -65t-121.5 -165.5t-73 -214.5
t-26.5 -219q0 -92 39.5 -138t126.5 -46q41 0 91.5 27t94 66t81 78t59.5 66l22 27l127 553q-133 31 -258 31z" />
    <glyph glyph-name="r" unicode="r" horiz-adv-x="636" 
d="M139 0l240 1024h121l-37 -154q22 15 60 38.5t139 71t184 64.5l-31 -124q-62 -15 -155.5 -55.5t-156.5 -73.5l-63 -33l-176 -758h-125z" />
    <glyph glyph-name="s" unicode="s" horiz-adv-x="876" 
d="M989 1006l-26 -99q-191 29 -322 29q-115 0 -186.5 -65.5t-71.5 -157.5q0 -55 39.5 -81.5t161.5 -56.5q63 -15 100 -26t76 -29t59 -40t32.5 -55t12.5 -77q0 -178 -123.5 -273t-316.5 -95q-67 0 -146.5 10.5t-125.5 21.5l-46 11l23 98q188 -33 309 -33q133 0 217 60t84 176
q0 65 -43 90.5t-170 54.5q-143 34 -204.5 78t-61.5 139q0 155 112 255.5t285 100.5q68 0 151 -9t132 -18z" />
    <glyph glyph-name="t" unicode="t" horiz-adv-x="645" 
d="M823 915h-303l-127 -540q-26 -113 -26 -182q0 -105 112 -105q24 0 65 3t70 6l29 3l-8 -96q-107 -24 -193 -24q-97 0 -150.5 49t-53.5 139q0 73 34 213l125 534h-139l27 109h139l76 313h123l-78 -313h305z" />
    <glyph glyph-name="u" unicode="u" horiz-adv-x="1011" 
d="M985 1024h123l-238 -1024h-118l43 199q-7 -9 -19.5 -23.5t-51 -52.5t-78 -67t-95 -52.5t-107.5 -23.5q-115 0 -177 67t-62 182q0 93 41 271l123 524h120l-120 -516q-39 -171 -39 -256q0 -77 39.5 -119.5t113.5 -42.5q43 0 94.5 26t94 63.5t78.5 75t56 63.5l21 26z" />
    <glyph glyph-name="v" unicode="v" horiz-adv-x="925" 
d="M291 1024h121l28 -918h72l467 918h129l-530 -1024h-252z" />
    <glyph glyph-name="w" unicode="w" horiz-adv-x="1480" 
d="M299 1024h123l-6 -918h35l444 898h147l21 -898h37l426 918h125l-475 -1024h-228l-16 846l-414 -846h-223z" />
    <glyph glyph-name="x" unicode="x" horiz-adv-x="851" 
d="M287 1024h127l151 -428l346 428h136l-433 -522l185 -502h-129l-148 418l-340 -418h-137l426 512z" />
    <glyph glyph-name="y" unicode="y" horiz-adv-x="925" 
d="M291 1024h121l28 -918h70l469 918h129l-766 -1483h-125l242 459h-133z" />
    <glyph glyph-name="z" unicode="z" horiz-adv-x="856" 
d="M289 915l28 109h697l-23 -106l-743 -812h555l-25 -106h-698l18 106l742 809h-551z" />
    <glyph glyph-name="braceleft" unicode="{" horiz-adv-x="653" 
d="M453 457q0 -38 -49.5 -212t-49.5 -237q0 -151 197 -151l-31 -115q-289 9 -289 231q0 68 49.5 243t49.5 208q0 65 -35 102t-115 64l25 102q70 18 114 39.5t72 52.5t42 66.5t26 91.5q5 24 17 90.5t22 117t18 75.5q51 161 148.5 233.5t279.5 79.5l-20 -113q-97 -5 -160 -37
t-96.5 -85t-51.5 -138q-3 -16 -12.5 -71t-18.5 -101.5t-14 -68.5q-29 -128 -82.5 -188.5t-164.5 -98.5q62 -24 95.5 -65.5t33.5 -114.5z" />
    <glyph glyph-name="bar" unicode="|" horiz-adv-x="626" 
d="M369 -461v1940h123v-1940h-123z" />
    <glyph glyph-name="braceright" unicode="}" horiz-adv-x="651" 
d="M494 819q0 38 49 212t49 237q0 151 -197 151l31 115q289 -9 289 -231q0 -68 -49.5 -243t-49.5 -208q0 -65 35 -102t115 -64l-25 -102q-70 -18 -114 -39.5t-72 -52.5t-42 -66.5t-26 -91.5q-5 -24 -17 -90.5t-22 -117t-18 -75.5q-51 -161 -148.5 -233.5t-279.5 -79.5
l21 112q142 7 210.5 70t96.5 191q3 16 12.5 71t18.5 101.5t14 68.5q29 128 83 188.5t165 98.5q-62 24 -95.5 65.5t-33.5 114.5z" />
    <glyph glyph-name="asciitilde" unicode="~" 
d="M1112 625l23 -103q-5 -4 -14 -11.5t-36 -26.5t-53.5 -33.5t-62 -26.5t-66.5 -12q-49 0 -132 34t-160.5 67.5t-112.5 33.5q-36 0 -89 -25.5t-89 -50.5l-35 -25l-23 105q5 5 14.5 12t37 26.5t54.5 34t63 26.5t67 12q49 0 130.5 -34t159 -68t115.5 -34q34 0 86 25t87 49z
" />
    <glyph glyph-name="exclamdown" unicode="&#xa1;" horiz-adv-x="372" 
d="M377 567l-223 -977h-123l237 977h109zM479 1024l-47 -205h-125l47 205h125z" />
    <glyph glyph-name="cent" unicode="&#xa2;" 
d="M528 -168l60 246q-80 1 -135.5 26t-83.5 65t-38.5 97t-5 115.5t22.5 126.5q55 211 169 321t274 115l59 254h106l-61 -254q38 -2 88.5 -7t81.5 -9l31 -4l-33 -111q-172 16 -246 16q-136 0 -222 -83.5t-124 -237.5q-14 -59 -19.5 -101t1 -84.5t29 -68.5t69 -42.5
t117.5 -16.5q39 0 104.5 3.5t111.5 7.5l46 3l-25 -109q-129 -16 -211 -16l-59 -252h-107z" />
    <glyph glyph-name="sterling" unicode="&#xa3;" 
d="M1235 1360l-27 -96q-146 16 -252 16q-50 0 -87 -17.5t-59.5 -38.5t-43 -72t-30 -84.5t-27.5 -109.5q-1 -5 -2 -8l-25 -100h416l-25 -109h-418l-141 -632h307l158 34v-106l-164 -37h-649l24 109h197l143 632h-151l27 109h151l25 115q21 88 40 146.5t49.5 116t68.5 90.5
t94.5 53t130.5 20q49 0 116.5 -7.5t110.5 -15.5z" />
    <glyph glyph-name="currency" unicode="&#xa4;" 
d="M1044 76l-145 145q-94 -67 -209 -67t-209 67l-143 -145l-86 88l143 141q-67 94 -67 210t67 210l-143 143l86 88l143 -145q94 66 209 66t209 -66l145 145l86 -88l-145 -145q66 -94 66 -209t-66 -207l145 -143zM518 342q70 -69 173 -69t173 69q69 72 69 174t-69 172
q-70 70 -173 70t-173 -70t-70 -172t70 -174z" />
    <glyph glyph-name="yen" unicode="&#xa5;" 
d="M291 651l24 111h285l-235 592h135l237 -596l500 596h162l-502 -592h277l-25 -111h-340l-31 -37l-37 -157h363l-27 -113h-362l-82 -344h-123l80 344h-371l27 113h368l37 161l-8 33h-352z" />
    <glyph glyph-name="brokenbar" unicode="&#xa6;" horiz-adv-x="641" 
d="M377 1479h123v-768h-123v768zM377 311h123v-772h-123v772z" />
    <glyph glyph-name="section" unicode="&#xa7;" horiz-adv-x="954" 
d="M1108 1307l-31 -113q-203 29 -295 29q-144 0 -220.5 -70t-76.5 -188q0 -33 10 -56.5t25.5 -38.5t48 -26.5t61.5 -18t83 -16.5q260 -47 260 -219q0 -51 -20.5 -109.5t-53.5 -111t-49 -75.5t-33 -44q22 -29 28.5 -54.5t6.5 -64.5q0 -31 -8.5 -69t-26.5 -87t-53 -93.5
t-82 -82.5t-119.5 -61t-159.5 -23q-54 0 -135 8.5t-136 16.5l-54 8l35 111q209 -29 313 -29q70 0 128.5 25.5t94.5 65.5t56 85.5t20 89.5q0 64 -44.5 92t-186.5 54q-149 25 -210 81.5t-61 147.5q0 58 23.5 118t57.5 104t57 69t36 35q-41 49 -41 149q0 71 29 139.5
t83.5 125.5t142 91.5t194.5 34.5q55 0 130.5 -7.5t124.5 -15.5zM647 698q-57 9 -109.5 24t-64.5 26q-12 -12 -36 -42t-55.5 -91t-31.5 -107q0 -63 43 -96.5t156 -53.5q131 -24 186 -55q7 7 32 46t53 102.5t28 107.5q0 55 -46 87t-155 52z" />
    <glyph glyph-name="dieresis" unicode="&#xa8;" horiz-adv-x="1478" 
d="M510 1280l39 168h100l-39 -168h-100zM877 1280l36 168h101l-39 -168h-98z" />
    <glyph glyph-name="copyright" unicode="&#xa9;" horiz-adv-x="1320" 
d="M332 889q0 153 68.5 279.5t190.5 200t273 73.5q153 0 276.5 -74.5t191 -200.5t67.5 -278q0 -153 -68 -279.5t-191 -200t-276 -73.5q-151 0 -273 74t-190.5 200.5t-68.5 278.5zM414 889q0 -129 57.5 -237t161.5 -172t231 -64q195 0 325 137.5t130 335.5q0 197 -131 335
t-324 138q-127 0 -231 -64t-161.5 -172t-57.5 -237zM1020 682l6 -92q-80 -21 -158 -21q-130 0 -180.5 77.5t-50.5 242.5q0 162 51 240.5t182 78.5q37 0 76 -4.5t60 -9.5l20 -4l-6 -94q-80 14 -146 14q-85 0 -111 -51t-26 -170q0 -115 29 -168t108 -53q26 0 62.5 3.5
t59.5 6.5z" />
    <glyph glyph-name="ordfeminine" unicode="&#xaa;" horiz-adv-x="712" 
d="M831 1155l-65 -283q12 -25 55 -36l-22 -82q-62 0 -88 11t-47 38q-131 -49 -242 -49q-74 0 -106.5 48.5t-12.5 129.5q21 84 71 124t148 46l189 12l12 45q12 53 -6 74.5t-70 21.5q-34 0 -91 -3.5t-98 -7.5l-40 -3l12 82q150 27 242 27q105 0 144.5 -44.5t14.5 -150.5z
M692 1032l-168 -10q-49 -3 -74 -24t-36 -66q-20 -86 55 -86q36 0 83 9t76 19l29 9z" />
    <glyph glyph-name="guillemotleft" unicode="&#xab;" horiz-adv-x="894" 
d="M979 823l-39 -129l-278 -188l186 -209l-35 -115l-276 297l22 64zM621 823l-39 -129l-279 -188l186 -209l-34 -115l-277 297l23 64z" />
    <glyph glyph-name="logicalnot" unicode="&#xac;" 
d="M258 692h870v-446h-116v334h-754v112z" />
    <glyph glyph-name="registered" unicode="&#xae;" horiz-adv-x="1320" 
d="M332 889q0 153 68.5 279.5t190.5 200t273 73.5q153 0 276.5 -74.5t191 -200.5t67.5 -278q0 -153 -68 -279.5t-191 -200t-276 -73.5q-151 0 -273 74t-190.5 200.5t-68.5 278.5zM414 889q0 -129 58 -237t162 -172t230 -64q195 0 325 137.5t130 335.5q0 197 -131 335
t-324 138q-127 0 -231 -64t-161.5 -172t-57.5 -237zM995 580l-110 227h-140v-227h-98v614h211q119 0 176.5 -43t57.5 -147q0 -75 -25.5 -119.5t-85.5 -65.5l121 -239h-107zM743 1110v-219h138q61 0 86.5 24.5t25.5 85.5q0 59 -33.5 84t-105.5 25h-111z" />
    <glyph glyph-name="macron" unicode="&#xaf;" horiz-adv-x="886" 
d="M475 1315l23 96h546l-24 -96h-545z" />
    <glyph glyph-name="degree" unicode="&#xb0;" 
d="M553 1157q0 128 79 207.5t206 79.5t206.5 -79.5t79.5 -207.5q0 -127 -79 -205t-207 -78t-206.5 78t-78.5 205zM643 1157q0 -89 53.5 -142.5t141.5 -53.5q90 0 145 53.5t55 142.5t-55.5 144t-144.5 55q-88 0 -141.5 -55t-53.5 -144z" />
    <glyph glyph-name="plusminus" unicode="&#xb1;" 
d="M211 610v115h397v266h117v-266h401v-115h-401v-272h-117v272h-397zM211 201h915v-115h-915v115z" />
    <glyph glyph-name="twosuperior" unicode="&#xb2;" horiz-adv-x="573" 
d="M711 979h-418l24 98l236 191q70 55 105.5 93.5t46.5 86.5q11 43 -13.5 63.5t-73.5 20.5q-28 0 -73.5 -5t-76.5 -11l-32 -5l21 101q123 24 209 24q101 0 138.5 -44t14.5 -136q-18 -68 -62 -120.5t-126 -116.5l-170 -140h274z" />
    <glyph glyph-name="threesuperior" unicode="&#xb3;" horiz-adv-x="573" 
d="M455 1616q123 20 211 20q107 0 148.5 -40.5t19.5 -127.5q-4 -18 -11 -34t-15 -29t-16.5 -24.5t-18 -20.5t-18 -16t-17 -12.5t-14 -9t-11.5 -6.5l-6 -3q50 -17 67 -49t-2 -109q-48 -197 -264 -197q-44 0 -99 6t-87 12l-33 5l30 96q111 -16 205 -16q111 0 135 96
q14 55 -7.5 77.5t-71.5 22.5h-134l23 97h133q33 0 69 31t46 73q9 40 -10 59t-74 19q-40 0 -88.5 -4t-77.5 -8l-29 -4z" />
    <glyph glyph-name="acute" unicode="&#xb4;" horiz-adv-x="1110" 
d="M584 1231l-13 94l447 193l14 -109z" />
    <glyph glyph-name="mu" unicode="&#xb5;" 
d="M94 -461l238 1024l108 461h121l-108 -461h2l-37 -153q-17 -90 -17 -158q0 -77 40 -119.5t114 -42.5q43 0 94.5 26t94 63.5t78.5 75t56 63.5l21 26l158 680h123l-238 -1024h-119l43 199q-7 -9 -19 -23.5t-50.5 -52.5t-78 -67t-95 -52.5t-107.5 -23.5q-117 0 -180 69
l-119 -510h-123z" />
    <glyph glyph-name="paragraph" unicode="&#xb6;" horiz-adv-x="1134" 
d="M786 0l316 1323h-250l-317 -1323h-107l168 692q-77 1 -135.5 24.5t-92.5 64t-50.5 89t-16.5 105.5q0 108 56.5 212.5t163.5 175.5t235 71h635l-23 -111h-160l-315 -1323h-107z" />
    <glyph glyph-name="periodcentered" unicode="&#xb7;" horiz-adv-x="356" 
d="M233 520l48 215h129l-48 -215h-129z" />
    <glyph glyph-name="cedilla" unicode="&#xb8;" horiz-adv-x="1619" 
d="M1022 -254q-20 -88 -72 -129t-141 -41q-37 0 -77 3t-62 6l-21 3l23 90q80 -8 137 -8q86 0 106 80q17 74 -69 74h-90l45 186h76l-29 -108h10q90 0 136.5 -36.5t27.5 -119.5z" />
    <glyph glyph-name="onesuperior" unicode="&#xb9;" horiz-adv-x="573" 
d="M420 1477l242 141h104l-158 -639h-110l129 518l-176 -102z" />
    <glyph glyph-name="ordmasculine" unicode="&#xba;" horiz-adv-x="696" 
d="M657 1348q89 0 143 -38t58 -116q4 -60 -14 -150q-35 -154 -113.5 -224t-214.5 -70q-96 0 -148 49t-51 141q0 42 17 115q38 157 114 225t209 68zM541 854q77 0 120.5 45t71.5 154q10 49 10 98q0 52 -25 73t-81 21q-78 0 -122.5 -42.5t-68.5 -145.5q-16 -66 -16 -103
q0 -52 27 -76t84 -24z" />
    <glyph glyph-name="guillemotright" unicode="&#xbb;" horiz-adv-x="985" 
d="M598 182l39 129l278 189l-186 209l35 114l276 -297l-22 -63zM150 182l38 129l279 189l-186 209l34 114l277 -297l-23 -63z" />
    <glyph glyph-name="onequarter" unicode="&#xbc;" horiz-adv-x="1196" 
d="M373 1477l241 141h105l-158 -639h-110l129 518l-177 -102zM338 -14l-115 43l873 1413l116 -43zM975 0l24 104h-292l24 95l266 440h121l-266 -432h172l53 178h103l-45 -178h61l-25 -103h-61l-27 -104h-108z" />
    <glyph glyph-name="onehalf" unicode="&#xbd;" horiz-adv-x="1247" 
d="M373 1477l241 141h105l-158 -639h-110l129 518l-177 -102zM338 -14l-115 43l873 1413l116 -43zM1180 0h-418l24 98l236 191q70 55 105.5 93.5t46.5 86.5q11 43 -13.5 63.5t-73.5 20.5q-28 0 -73.5 -5.5t-77.5 -10.5l-31 -5l21 101q123 24 209 24q101 0 138.5 -44
t14.5 -136q-18 -68 -62 -120.5t-126 -116.5l-170 -140h274z" />
    <glyph glyph-name="threequarters" unicode="&#xbe;" horiz-adv-x="1234" 
d="M455 1616q123 20 211 20q107 0 148.5 -40.5t19.5 -127.5q-4 -18 -11 -34t-15 -29t-16.5 -24.5t-18 -20.5t-18 -16t-17 -12.5t-14 -9t-11.5 -6.5l-6 -3q50 -17 67 -49t-2 -109q-48 -197 -264 -197q-44 0 -99 6t-87 12l-33 5l30 96q111 -16 205 -16q111 0 135 96
q14 55 -7.5 77.5t-71.5 22.5h-134l23 97h133q33 0 69 31t46 73q9 40 -10 59t-74 19q-40 0 -88.5 -4t-77.5 -8l-29 -4zM381 -14l-115 43l873 1413l116 -43zM1018 0l24 104h-292l24 95l266 440h121l-266 -432h172l53 178h103l-45 -178h61l-25 -103h-61l-27 -104h-108z" />
    <glyph glyph-name="questiondown" unicode="&#xbf;" horiz-adv-x="821" 
d="M47 -162q0 53 6 93.5t24.5 80.5t40.5 71t66 73.5t87.5 78.5t117.5 95q147 118 168 221l16 80h117q-4 -60 -14 -113q-26 -134 -211 -276q-73 -59 -114 -94.5t-79.5 -75t-56 -72t-27.5 -71t-10 -85.5q0 -79 56.5 -113t164.5 -34q53 0 126.5 9.5t120.5 19.5l48 10l-6 -103
q-180 -51 -313 -51q-150 0 -239 62.5t-89 193.5zM770 1024l-45 -211h-127l47 211h125z" />
    <glyph glyph-name="Agrave" unicode="&#xc0;" horiz-adv-x="1136" 
d="M733 1894l359 -194l-54 -88l-364 180zM55 0l727 1423h258l47 -1423h-124l-17 391h-561l-203 -391h-127zM854 1311l-414 -809h506l-26 809h-66z" />
    <glyph glyph-name="Aacute" unicode="&#xc1;" horiz-adv-x="1136" 
d="M811 1618l-16 92l448 195l19 -107zM55 0l727 1423h258l47 -1423h-124l-17 391h-561l-203 -391h-127zM854 1311l-414 -809h506l-26 809h-66z" />
    <glyph glyph-name="Acircumflex" unicode="&#xc2;" horiz-adv-x="1136" 
d="M637 1632l330 275h61l199 -275h-115l-125 176l-215 -176h-135zM55 0l727 1423h258l47 -1423h-124l-17 391h-561l-203 -391h-127zM854 1311l-414 -809h506l-26 809h-66z" />
    <glyph glyph-name="Atilde" unicode="&#xc3;" horiz-adv-x="1136" 
d="M1282 1864l6 -86q-14 -14 -37.5 -34t-76 -53.5t-82.5 -33.5q-37 0 -95 30.5t-111 60.5t-79 30q-19 0 -64 -26t-81 -52l-35 -27l-4 90q15 14 39.5 34t80.5 53.5t88 33.5q41 0 99.5 -30t110 -59.5t75.5 -29.5q17 0 58.5 24.5t74.5 49.5zM55 0l727 1423h258l47 -1423h-124
l-17 391h-561l-203 -391h-127zM854 1311l-414 -809h506l-26 809h-66z" />
    <glyph glyph-name="Adieresis" unicode="&#xc4;" horiz-adv-x="1136" 
d="M715 1679l37 170h102l-41 -170h-98zM1092 1679l41 170h100l-41 -170h-100zM55 0l727 1423h258l47 -1423h-124l-17 391h-561l-203 -391h-127zM854 1311l-414 -809h506l-26 809h-66z" />
    <glyph glyph-name="Aring" unicode="&#xc5;" horiz-adv-x="1136" 
d="M55 0l703 1374q-50 53 -23 152q26 96 90.5 146t157.5 50q91 0 133.5 -48.5t18.5 -147.5q-24 -96 -95 -148l47 -1378h-124l-17 391h-561l-203 -391h-127zM854 1311l-414 -809h506l-26 809h-66zM819 1526q-9 -38 3.5 -66t47.5 -37h78q81 18 103 103q10 51 -14.5 79.5
t-75.5 28.5q-55 0 -92.5 -28t-49.5 -80z" />
    <glyph glyph-name="AE" unicode="&#xc6;" horiz-adv-x="1609" 
d="M731 0l90 391h-442l-203 -391h-121l727 1427h1071l-24 -116l-668 4l-129 -533h553l-24 -114h-553l-131 -551h665l-24 -117h-787zM844 1311l-410 -805h414l194 805h-198z" />
    <glyph glyph-name="Ccedilla" unicode="&#xc7;" horiz-adv-x="1036" 
d="M975 129l-6 -104q-182 -45 -344 -45h-7l-20 -78h10q90 0 136.5 -36.5t27.5 -119.5q-20 -88 -72 -129t-141 -41q-37 0 -77 3t-62 6l-21 3l23 90q80 -8 137 -8q87 0 107 80q17 74 -70 74h-90l39 162q-309 40 -309 401q0 111 18.5 229t55.5 237.5t97 225t136 187.5
t181.5 130t225.5 48q71 0 155.5 -11t133.5 -23l49 -11l-28 -103q-166 33 -318 33q-92 0 -174.5 -41.5t-144 -112.5t-111.5 -164.5t-81 -198.5t-47.5 -212t-16.5 -209q0 -152 66 -224.5t210 -72.5q72 0 155 9t130 17z" />
    <glyph glyph-name="Egrave" unicode="&#xc8;" horiz-adv-x="1038" 
d="M772 1894l358 -194l-53 -88l-364 180zM166 0l328 1423h784l-27 -112h-657l-123 -529h545l-27 -112h-543l-129 -557h658l-27 -113h-782z" />
    <glyph glyph-name="Eacute" unicode="&#xc9;" horiz-adv-x="1038" 
d="M784 1618l-16 92l449 195l18 -107zM166 0l328 1423h784l-27 -112h-657l-123 -529h545l-27 -112h-543l-129 -557h658l-27 -113h-782z" />
    <glyph glyph-name="Ecircumflex" unicode="&#xca;" horiz-adv-x="1038" 
d="M743 1626l330 275h62l198 -275h-114l-125 176l-215 -176h-136zM166 0l328 1423h784l-27 -112h-657l-123 -529h545l-27 -112h-543l-129 -557h658l-27 -113h-782z" />
    <glyph glyph-name="Edieresis" unicode="&#xcb;" horiz-adv-x="1038" 
d="M702 1679l37 170h103l-41 -170h-99zM1079 1679l41 170h101l-41 -170h-101zM166 0l328 1423h784l-27 -112h-657l-123 -529h545l-27 -112h-543l-129 -557h658l-27 -113h-782z" />
    <glyph glyph-name="Igrave" unicode="&#xcc;" horiz-adv-x="456" 
d="M369 1894l358 -194l-53 -88l-365 180zM166 0l328 1423h127l-330 -1423h-125z" />
    <glyph glyph-name="Iacute" unicode="&#xcd;" horiz-adv-x="456" 
d="M494 1618l-17 92l449 195l18 -107zM166 0l328 1423h127l-330 -1423h-125z" />
    <glyph glyph-name="Icircumflex" unicode="&#xce;" horiz-adv-x="456" 
d="M299 1626l330 275h61l199 -275h-115l-125 176l-215 -176h-135zM166 0l328 1423h127l-330 -1423h-125z" />
    <glyph glyph-name="Idieresis" unicode="&#xcf;" horiz-adv-x="456" 
d="M362 1686l37 169h103l-41 -169h-99zM739 1686l41 169h101l-41 -169h-101zM166 0l328 1423h127l-330 -1423h-125z" />
    <glyph glyph-name="Eth" unicode="&#xd0;" horiz-adv-x="1251" 
d="M659 0h-487l150 651h-144l27 127h145l150 645h461q190 0 282 -101.5t92 -320.5q0 -132 -25 -268t-79.5 -268.5t-131.5 -235t-191 -166t-249 -63.5zM1204 1001q0 163 -62.5 236.5t-205.5 73.5h-336l-123 -533h307l-30 -127h-305l-123 -538h354q84 0 159.5 41.5
t131.5 111.5t101 160t73.5 189.5t43.5 198t15 187.5z" />
    <glyph glyph-name="Ntilde" unicode="&#xd1;" horiz-adv-x="1280" 
d="M1360 1860l6 -86q-14 -14 -37.5 -34t-76.5 -53.5t-83 -33.5q-37 0 -95 30.5t-110.5 60.5t-78.5 30q-19 0 -64 -26t-81 -52l-35 -27l-5 90q15 14 40 34t81 53.5t88 33.5q41 0 99.5 -30t110 -59.5t75.5 -29.5q17 0 58.5 24.5t74.5 49.5zM166 0l328 1423h237l248 -1298h43
l299 1298h123l-328 -1423h-229l-254 1303h-45l-301 -1303h-121z" />
    <glyph glyph-name="Ograve" unicode="&#xd2;" horiz-adv-x="1292" 
d="M854 1894l358 -194l-53 -88l-364 180zM684 92q143 0 252 86q101 80 174 225.5t105 301.5t32 309q0 165 -75.5 241t-239.5 76q-131 0 -236 -82q-104 -81 -180.5 -230.5t-111.5 -307t-35 -303.5q0 -172 71.5 -244t243.5 -72zM672 -20q-228 0 -330 97.5t-102 325.5
q0 260 85 504t240 387q166 150 375 150q218 0 328 -103.5t110 -320.5q0 -276 -88 -525t-254 -386q-154 -129 -364 -129z" />
    <glyph glyph-name="Oacute" unicode="&#xd3;" horiz-adv-x="1292" 
d="M684 92q143 0 252 86q101 80 174 225.5t105 301.5t32 309q0 165 -75.5 241t-239.5 76q-131 0 -236 -82q-104 -81 -180.5 -230.5t-111.5 -307t-35 -303.5q0 -172 71.5 -244t243.5 -72zM672 -20q-228 0 -330 97.5t-102 325.5q0 260 85 504t240 387q166 150 375 150
q218 0 328 -103.5t110 -320.5q0 -276 -88 -525t-254 -386q-154 -129 -364 -129zM887 1618l-17 92l449 195l18 -107z" />
    <glyph glyph-name="Ocircumflex" unicode="&#xd4;" horiz-adv-x="1292" 
d="M684 92q143 0 252 86q101 80 174 225.5t105 301.5t32 309q0 165 -75.5 241t-239.5 76q-131 0 -236 -82q-104 -81 -180.5 -230.5t-111.5 -307t-35 -303.5q0 -172 71.5 -244t243.5 -72zM672 -20q-228 0 -330 97.5t-102 325.5q0 260 85 504t240 387q166 150 375 150
q218 0 328 -103.5t110 -320.5q0 -276 -88 -525t-254 -386q-154 -129 -364 -129zM729 1632l330 275h61l199 -275h-115l-125 176l-215 -176h-135z" />
    <glyph glyph-name="Otilde" unicode="&#xd5;" horiz-adv-x="1292" 
d="M1389 1860l6 -86q-14 -14 -37.5 -34t-76.5 -53.5t-83 -33.5q-37 0 -95 30.5t-111 60.5t-79 30q-19 0 -64 -26t-81 -52l-35 -27l-4 90q15 14 40 34t81 53.5t88 33.5q41 0 99.5 -30t110 -59.5t75.5 -29.5q17 0 58.5 24.5t74.5 49.5zM684 92q143 0 252 86q101 80 174 225.5
t105 301.5t32 309q0 165 -75.5 241t-239.5 76q-131 0 -236 -82q-104 -81 -180.5 -230.5t-111.5 -307t-35 -303.5q0 -172 71.5 -244t243.5 -72zM672 -20q-228 0 -330 97.5t-102 325.5q0 260 85 504t240 387q166 150 375 150q218 0 328 -103.5t110 -320.5q0 -276 -88 -525
t-254 -386q-154 -129 -364 -129z" />
    <glyph glyph-name="Odieresis" unicode="&#xd6;" horiz-adv-x="1292" 
d="M784 1679l39 168h115l-39 -168h-115zM1165 1679l37 168h113l-39 -168h-111zM684 92q143 0 252 86q101 80 174 225.5t105 301.5t32 309q0 165 -75.5 241t-239.5 76q-131 0 -236 -82q-104 -81 -180.5 -230.5t-111.5 -307t-35 -303.5q0 -172 71.5 -244t243.5 -72zM672 -20
q-228 0 -330 97.5t-102 325.5q0 260 85 504t240 387q166 150 375 150q218 0 328 -103.5t110 -320.5q0 -276 -88 -525t-254 -386q-154 -129 -364 -129z" />
    <glyph glyph-name="multiply" unicode="&#xd7;" 
d="M350 934l340 -344l340 344l80 -80l-342 -340l342 -340l-80 -82l-340 344l-340 -342l-80 80l342 340l-342 338z" />
    <glyph glyph-name="Oslash" unicode="&#xd8;" horiz-adv-x="1292" 
d="M223 -231l-76 45l185 272q-92 99 -92 317q0 260 85 504t240 387q166 150 375 150q170 0 274 -64l168 246l84 -37l-182 -266q94 -104 94 -303q0 -276 -88 -525t-254 -386q-154 -129 -364 -129q-173 0 -269 51zM410 201l354 520l381 557q-73 53 -213 53q-131 0 -236 -82
q-104 -81 -180.5 -230.5t-111.5 -307t-35 -303.5q0 -138 41 -207zM684 92q143 0 252 86q101 80 174 225.5t105 301.5t32 309q0 120 -41 194l-362 -532l-369 -541q68 -43 209 -43z" />
    <glyph glyph-name="Ugrave" unicode="&#xd9;" horiz-adv-x="1214" 
d="M805 1894l358 -194l-53 -88l-365 180zM608 1423l-227 -987q-21 -86 -21 -151q0 -191 285 -191q171 0 259 79.5t126 248.5l232 1001h127l-232 -1003q-53 -225 -173.5 -332.5t-346.5 -107.5q-188 0 -294.5 72t-106.5 218q0 93 22 176l225 977h125z" />
    <glyph glyph-name="Uacute" unicode="&#xda;" horiz-adv-x="1214" 
d="M608 1423l-227 -987q-21 -86 -21 -151q0 -191 285 -191q171 0 259 79.5t126 248.5l232 1001h127l-232 -1003q-53 -225 -173.5 -332.5t-346.5 -107.5q-188 0 -294.5 72t-106.5 218q0 93 22 176l225 977h125zM801 1618l-17 92l449 195l18 -107z" />
    <glyph glyph-name="Ucircumflex" unicode="&#xdb;" horiz-adv-x="1214" 
d="M608 1423l-227 -987q-21 -86 -21 -151q0 -191 285 -191q171 0 259 79.5t126 248.5l232 1001h127l-232 -1003q-53 -225 -173.5 -332.5t-346.5 -107.5q-188 0 -294.5 72t-106.5 218q0 93 22 176l225 977h125zM674 1632l330 275h61l199 -275h-115l-125 176l-215 -176h-135z
" />
    <glyph glyph-name="Udieresis" unicode="&#xdc;" horiz-adv-x="1214" 
d="M725 1679l39 168h115l-39 -168h-115zM1106 1679l37 168h114l-40 -168h-111zM608 1423l-227 -987q-21 -86 -21 -151q0 -191 285 -191q171 0 259 79.5t126 248.5l232 1001h127l-232 -1003q-53 -225 -173.5 -332.5t-346.5 -107.5q-188 0 -294.5 72t-106.5 218q0 93 22 176
l225 977h125z" />
    <glyph glyph-name="Yacute" unicode="&#xdd;" horiz-adv-x="1003" 
d="M705 1618l-17 92l449 195l18 -107zM1300 1423l-604 -813l-143 -610h-121l143 623l-221 800h127l183 -690l501 690h135z" />
    <glyph glyph-name="Thorn" unicode="&#xde;" horiz-adv-x="1128" 
d="M729 375q276 0 371 366q19 65 17 125t-21.5 106t-73.5 73.5t-137 27.5l-346 2l-166 -700h356zM702 256h-358l-59 -256h-123l336 1427h123l-56 -235h348q87 0 151 -23.5t102 -64.5t56 -98.5t17.5 -123t-16.5 -141.5q-48 -222 -181.5 -353.5t-339.5 -131.5z" />
    <glyph glyph-name="germandbls" unicode="&#xdf;" horiz-adv-x="1089" 
d="M256 0h-117l256 1087q54 227 154.5 319.5t286.5 92.5q160 0 238.5 -60t78.5 -173q0 -119 -50.5 -194t-148.5 -122q-95 -46 -130.5 -75.5t-35.5 -67.5q0 -39 23.5 -65.5t101.5 -75.5q50 -31 74.5 -47.5t52 -41t38.5 -46.5t18.5 -54t7.5 -74q0 -194 -120.5 -308.5
t-334.5 -114.5q-47 0 -107.5 9t-97.5 18l-36 9l22 99q133 -27 217 -27q156 0 244 83t88 222q0 64 -30.5 100.5t-133.5 98.5q-87 54 -119 95.5t-32 98.5q0 81 43 128.5t163 109.5q85 44 121.5 94.5t36.5 132.5q0 71 -47.5 106.5t-153.5 35.5q-139 0 -209.5 -73t-109.5 -247z
" />
    <glyph glyph-name="agrave" unicode="&#xe0;" horiz-adv-x="1009" 
d="M442 -20q-129 0 -192.5 75t-63.5 213q0 101 20.5 207.5t63.5 208.5t102.5 182t144.5 129t183 49q56 0 155.5 -12t170.5 -24l72 -13l-156 -665q-14 -57 -28 -139t-22 -135l-7 -54l-119 -4q31 190 39 233q-7 -10 -20.5 -27t-54.5 -60.5t-82 -76.5t-98 -60t-108 -27z
M702 936q-74 0 -138.5 -43.5t-109.5 -113.5t-77.5 -158.5t-48 -179t-15.5 -173.5q0 -90 37.5 -135t126.5 -45q39 0 90 30t96 72t83.5 84.5t61.5 72.5l23 30l125 528q-148 31 -254 31zM686 1503l361 -192l-58 -84l-362 180z" />
    <glyph glyph-name="aacute" unicode="&#xe1;" horiz-adv-x="1009" 
d="M442 -20q-129 0 -192.5 75t-63.5 213q0 101 20.5 207.5t63.5 208.5t102.5 182t144.5 129t183 49q56 0 155.5 -12t170.5 -24l72 -13l-156 -665q-14 -57 -28 -139t-22 -135l-7 -54l-119 -4q31 190 39 233q-7 -10 -20.5 -27t-54.5 -60.5t-82 -76.5t-98 -60t-108 -27z
M702 936q-74 0 -138.5 -43.5t-109.5 -113.5t-77.5 -158.5t-48 -179t-15.5 -173.5q0 -90 37.5 -135t126.5 -45q39 0 90 30t96 72t83.5 84.5t61.5 72.5l23 30l125 528q-148 31 -254 31zM698 1231l-12 94l447 193l14 -109z" />
    <glyph glyph-name="acircumflex" unicode="&#xe2;" horiz-adv-x="1009" 
d="M508 1208l309 297h86l178 -297h-127l-110 189l-199 -189h-137zM442 -20q-129 0 -192.5 75t-63.5 213q0 101 20.5 207.5t63.5 208.5t102.5 182t144.5 129t183 49q56 0 155.5 -12t170.5 -24l72 -13l-156 -665q-14 -57 -28 -139t-22 -135l-7 -54l-119 -4q31 190 39 233
q-7 -10 -20.5 -27t-54.5 -60.5t-82 -76.5t-98 -60t-108 -27zM702 936q-74 0 -138.5 -43.5t-109.5 -113.5t-77.5 -158.5t-48 -179t-15.5 -173.5q0 -90 37.5 -135t126.5 -45q39 0 90 30t96 72t83.5 84.5t61.5 72.5l23 30l125 528q-148 31 -254 31z" />
    <glyph glyph-name="atilde" unicode="&#xe3;" horiz-adv-x="1009" 
d="M442 -20q-129 0 -192.5 75t-63.5 213q0 101 20.5 207.5t63.5 208.5t102.5 182t144.5 129t183 49q56 0 155.5 -12t170.5 -24l72 -13l-156 -665q-14 -57 -28 -139t-22 -135l-7 -54l-119 -4q31 190 39 233q-7 -10 -20.5 -27t-54.5 -60.5t-82 -76.5t-98 -60t-108 -27z
M702 936q-74 0 -138.5 -43.5t-109.5 -113.5t-77.5 -158.5t-48 -179t-15.5 -173.5q0 -90 37.5 -135t126.5 -45q39 0 90 30t96 72t83.5 84.5t61.5 72.5l23 30l125 528q-148 31 -254 31zM1161 1462l8 -94q-12 -11 -32.5 -27.5t-68.5 -43.5t-79 -27q-40 0 -137.5 50t-124.5 50
q-19 0 -59 -22.5t-70 -45.5l-31 -22l-4 96q14 12 36 29t74 45.5t83 28.5q45 0 139 -50.5t117 -50.5q17 0 54.5 21t65.5 42z" />
    <glyph glyph-name="adieresis" unicode="&#xe4;" horiz-adv-x="1009" 
d="M557 1280l39 168h115l-41 -168h-113zM938 1280l35 168h114l-38 -168h-111zM442 -20q-129 0 -192.5 75t-63.5 213q0 101 20.5 207.5t63.5 208.5t102.5 182t144.5 129t183 49q56 0 155.5 -12t170.5 -24l72 -13l-156 -665q-14 -57 -28 -139t-22 -135l-7 -54l-119 -4
q31 190 39 233q-7 -10 -20.5 -27t-54.5 -60.5t-82 -76.5t-98 -60t-108 -27zM702 936q-74 0 -138.5 -43.5t-109.5 -113.5t-77.5 -158.5t-48 -179t-15.5 -173.5q0 -90 37.5 -135t126.5 -45q39 0 90 30t96 72t83.5 84.5t61.5 72.5l23 30l125 528q-148 31 -254 31z" />
    <glyph glyph-name="aring" unicode="&#xe5;" horiz-adv-x="1009" 
d="M442 -20q-129 0 -192.5 75t-63.5 213q0 101 20.5 207.5t63.5 208.5t102.5 182t144.5 129t183 49q56 0 155.5 -12t170.5 -24l72 -13l-156 -665q-14 -57 -28 -139t-22 -135l-7 -54l-119 -4q31 190 39 233q-7 -10 -20.5 -27t-54.5 -60.5t-82 -76.5t-98 -60t-108 -27z
M702 936q-74 0 -138.5 -43.5t-109.5 -113.5t-77.5 -158.5t-48 -179t-15.5 -173.5q0 -90 37.5 -135t126.5 -45q39 0 90 30t96 72t83.5 84.5t61.5 72.5l23 30l125 528q-148 31 -254 31zM690 1360q16 80 79.5 137t152.5 57q72 0 107.5 -43t29.5 -118q-6 -99 -73.5 -163.5
t-160.5 -64.5q-87 0 -119 53t-16 142zM770 1360q-10 -42 12 -76.5t66 -34.5q45 0 81.5 32t47.5 79q11 41 -11 73.5t-65 32.5q-45 0 -82.5 -30.5t-48.5 -75.5z" />
    <glyph glyph-name="ae" unicode="&#xe6;" horiz-adv-x="1550" 
d="M1092 96q62 0 151 5t147 9l58 5l-23 -107q-212 -28 -366 -28q-193 0 -256 114q-101 -42 -237.5 -78t-227.5 -36q-65 0 -111.5 26t-67 69.5t-27 99.5t8.5 116q27 141 119.5 208t247.5 91q163 24 317 33q101 299 -104 299q-63 0 -154.5 -6t-152.5 -12l-60 -5l19 117
q229 26 379 26q92 0 152.5 -42.5t70.5 -122.5q126 165 354 165q285 0 291 -276q0 -104 -29 -211l-26 -98l-643 4q-27 -117 -25 -180q2 -92 47 -138.5t148 -46.5zM375 94q75 0 189 28t210 62q-4 20 -6 42t-2.5 39t2 42.5t4 39.5t7 43.5t7.5 39.5t9.5 44t9.5 42
q-200 -20 -311 -35q-91 -14 -147 -58.5t-77 -129.5q-9 -34 -9 -67.5t9.5 -64t36.5 -49t68 -18.5zM944 565l529 -4q29 118 26 187q-1 94 -49.5 138t-146.5 44q-136 0 -225 -87.5t-134 -277.5z" />
    <glyph glyph-name="ccedilla" unicode="&#xe7;" horiz-adv-x="829" 
d="M733 1044q49 0 110 -8t97 -16l37 -8l-31 -99q-127 23 -217 23q-82 0 -151 -36.5t-116 -97.5t-80 -143t-48 -172.5t-15 -185.5q0 -106 53 -159.5t173 -53.5q36 0 93.5 8t97.5 16l40 9l-6 -98q-139 -43 -262 -43h-6l-21 -78h11q90 0 136 -36t27 -120q-20 -88 -72 -129
t-141 -41q-37 0 -77 3t-61 6l-21 3l22 90q80 -8 137 -8q87 0 107 80q17 74 -70 74h-90l39 162q-233 36 -233 295q0 119 20 229.5t63.5 208t105.5 169.5t151.5 114t197.5 42z" />
    <glyph glyph-name="egrave" unicode="&#xe8;" horiz-adv-x="937" 
d="M524 90q68 0 152 13t134 25l50 13l-8 -100q-20 -7 -54.5 -17t-129.5 -27t-176 -17q-143 0 -222.5 77t-79.5 226q0 107 20 212.5t64.5 205t107.5 175t156 121t203 45.5q137 0 213 -56.5t76 -176.5q0 -180 -139 -253t-436 -73h-115q-25 -105 -25 -188q0 -98 56.5 -151.5
t152.5 -53.5zM358 584h121q226 0 327 48t101 175q0 70 -43 100.5t-129 30.5q-270 0 -377 -354zM526 1503l361 -192l-58 -84l-362 180z" />
    <glyph glyph-name="eacute" unicode="&#xe9;" horiz-adv-x="937" 
d="M524 90q68 0 152 13t134 25l50 13l-8 -100q-20 -7 -54.5 -17t-129.5 -27t-176 -17q-143 0 -222.5 77t-79.5 226q0 107 20 212.5t64.5 205t107.5 175t156 121t203 45.5q137 0 213 -56.5t76 -176.5q0 -180 -139 -253t-436 -73h-115q-25 -105 -25 -188q0 -98 56.5 -151.5
t152.5 -53.5zM358 584h121q226 0 327 48t101 175q0 70 -43 100.5t-129 30.5q-270 0 -377 -354zM625 1231l-13 94l447 193l14 -109z" />
    <glyph glyph-name="ecircumflex" unicode="&#xea;" horiz-adv-x="937" 
d="M467 1208l311 297h84l178 -297h-125l-110 189l-199 -189h-139zM524 90q68 0 152 13t134 25l50 13l-8 -100q-20 -7 -54.5 -17t-129.5 -27t-176 -17q-143 0 -222.5 77t-79.5 226q0 107 20 212.5t64.5 205t107.5 175t156 121t203 45.5q137 0 213 -56.5t76 -176.5
q0 -180 -139 -253t-436 -73h-115q-25 -105 -25 -188q0 -98 56.5 -151.5t152.5 -53.5zM358 584h121q226 0 327 48t101 175q0 70 -43 100.5t-129 30.5q-270 0 -377 -354z" />
    <glyph glyph-name="edieresis" unicode="&#xeb;" horiz-adv-x="937" 
d="M539 1280l39 168h114l-39 -168h-114zM920 1280l36 168h115l-41 -168h-110zM524 90q68 0 152 13t134 25l50 13l-8 -100q-20 -7 -54.5 -17t-129.5 -27t-176 -17q-143 0 -222.5 77t-79.5 226q0 107 20 212.5t64.5 205t107.5 175t156 121t203 45.5q137 0 213 -56.5t76 -176.5
q0 -180 -139 -253t-436 -73h-115q-25 -105 -25 -188q0 -98 56.5 -151.5t152.5 -53.5zM358 584h121q226 0 327 48t101 175q0 70 -43 100.5t-129 30.5q-270 0 -377 -354z" />
    <glyph glyph-name="igrave" unicode="&#xec;" horiz-adv-x="403" 
d="M139 0l238 1024h123l-238 -1024h-123zM219 1503l361 -192l-58 -84l-362 180z" />
    <glyph glyph-name="iacute" unicode="&#xed;" horiz-adv-x="403" 
d="M139 0l238 1024h123l-238 -1024h-123zM401 1231l-12 94l447 193l14 -109z" />
    <glyph glyph-name="icircumflex" unicode="&#xee;" horiz-adv-x="403" 
d="M180 1208l309 297h86l177 -297h-125l-111 189l-199 -189h-137zM139 0l238 1024h123l-238 -1024h-123z" />
    <glyph glyph-name="idieresis" unicode="&#xef;" horiz-adv-x="403" 
d="M219 1280l39 168h115l-41 -168h-113zM600 1280l35 168h115l-39 -168h-111zM139 0l238 1024h123l-238 -1024h-123z" />
    <glyph glyph-name="eth" unicode="&#xf0;" horiz-adv-x="1052" 
d="M817 1243l-244 -151l-49 79l201 125q-68 36 -203 80l51 111q161 -40 281 -109l221 140l47 -82l-182 -115q269 -209 180 -588q-94 -396 -242.5 -573.5t-371.5 -177.5q-94 0 -164 27.5t-109 75.5t-55 107t-10 127q7 125 51.5 231t116 177.5t163.5 111.5t193 40
q65 0 144.5 -20t126.5 -40l47 -20q47 282 -193 444zM674 758q-154 0 -261.5 -123.5t-111.5 -306.5q-8 -103 49.5 -163.5t184.5 -60.5q83 0 153 41t124.5 119t96 180t74.5 234q-8 6 -52 23.5t-120.5 37t-136.5 19.5z" />
    <glyph glyph-name="ntilde" unicode="&#xf1;" horiz-adv-x="1011" 
d="M139 0h123l158 678q8 10 21.5 27.5t54.5 61.5t80.5 78t92 61.5t95.5 27.5q77 0 115.5 -42t38.5 -120q0 -85 -39 -256l-121 -516h121l122 524q41 178 41 269q0 117 -61.5 184t-177.5 67q-52 0 -107 -22.5t-96.5 -55t-76 -64.5t-52.5 -54l-18 -23l43 199h-119zM1120 1462
l8 -94q-12 -11 -32.5 -27.5t-68.5 -43.5t-79 -27q-40 0 -137.5 50t-124.5 50q-19 0 -59 -22.5t-71 -45.5l-30 -22l-4 96q14 12 36 29t74 45.5t83 28.5q45 0 139 -50.5t117 -50.5q17 0 54.5 21t66.5 42z" />
    <glyph glyph-name="ograve" unicode="&#xf2;" horiz-adv-x="1011" 
d="M707 1042q170 0 257 -84.5t87 -252.5q0 -196 -62.5 -360t-183.5 -264.5t-277 -100.5q-167 0 -251 78.5t-84 244.5q0 198 65 366.5t183.5 270.5t265.5 102zM528 88q117 0 209.5 86t140.5 226.5t48 306.5q0 105 -55 167t-164 62q-113 0 -204 -89.5t-139.5 -233.5
t-48.5 -310q0 -215 213 -215zM582 1503l360 -192l-57 -84l-363 180z" />
    <glyph glyph-name="oacute" unicode="&#xf3;" horiz-adv-x="1011" 
d="M707 1042q170 0 257 -84.5t87 -252.5q0 -196 -62.5 -360t-183.5 -264.5t-277 -100.5q-167 0 -251 78.5t-84 244.5q0 198 65 366.5t183.5 270.5t265.5 102zM528 88q117 0 209.5 86t140.5 226.5t48 306.5q0 105 -55 167t-164 62q-113 0 -204 -89.5t-139.5 -233.5
t-48.5 -310q0 -215 213 -215zM627 1231l-13 94l447 193l14 -109z" />
    <glyph glyph-name="ocircumflex" unicode="&#xf4;" horiz-adv-x="1011" 
d="M500 1208l311 297h84l178 -297h-127l-110 189l-199 -189h-137zM707 1042q170 0 257 -84.5t87 -252.5q0 -196 -62.5 -360t-183.5 -264.5t-277 -100.5q-167 0 -251 78.5t-84 244.5q0 198 65 366.5t183.5 270.5t265.5 102zM528 88q117 0 209.5 86t140.5 226.5t48 306.5
q0 105 -55 167t-164 62q-113 0 -204 -89.5t-139.5 -233.5t-48.5 -310q0 -215 213 -215z" />
    <glyph glyph-name="otilde" unicode="&#xf5;" horiz-adv-x="1011" 
d="M707 1042q170 0 257 -84.5t87 -252.5q0 -196 -62.5 -360t-183.5 -264.5t-277 -100.5q-167 0 -251 78.5t-84 244.5q0 198 65 366.5t183.5 270.5t265.5 102zM528 88q117 0 209.5 86t140.5 226.5t48 306.5q0 105 -55 167t-164 62q-113 0 -204 -89.5t-139.5 -233.5
t-48.5 -310q0 -215 213 -215zM1094 1462l8 -94q-12 -11 -32.5 -27.5t-68.5 -43.5t-79 -27q-40 0 -138 50t-125 50q-19 0 -59 -22.5t-70 -45.5l-30 -22l-4 96q14 12 36 29t73.5 45.5t82.5 28.5q45 0 139 -50.5t117 -50.5q17 0 54.5 21t66.5 42z" />
    <glyph glyph-name="odieresis" unicode="&#xf6;" horiz-adv-x="1011" 
d="M707 1042q170 0 257 -84.5t87 -252.5q0 -196 -62.5 -360t-183.5 -264.5t-277 -100.5q-167 0 -251 78.5t-84 244.5q0 198 65 366.5t183.5 270.5t265.5 102zM528 88q117 0 209.5 86t140.5 226.5t48 306.5q0 105 -55 167t-164 62q-113 0 -204 -89.5t-139.5 -233.5
t-48.5 -310q0 -215 213 -215zM555 1280l39 168h100l-39 -168h-100zM922 1280l36 168h101l-39 -168h-98z" />
    <glyph glyph-name="divide" unicode="&#xf7;" 
d="M317 539v120h750v-120h-750zM545 686v184h295v-184h-295zM629 68v190h125v-190h-125z" />
    <glyph glyph-name="oslash" unicode="&#xf8;" horiz-adv-x="1009" 
d="M709 1047q95 0 176 -33l137 223l78 -33l-148 -231q101 -87 101 -264q0 -196 -62.5 -360t-183.5 -264.5t-277 -100.5q-104 0 -178 30l-149 -243l-78 32l160 252q-90 81 -90 252q0 198 65 367t183.5 271t265.5 102zM530 92q117 0 209.5 86t140.5 226.5t48 306.5
q0 93 -43 151l-236 -370l-233 -377q45 -23 114 -23zM354 166l230 362l239 387q-48 25 -114 25q-113 0 -204 -89.5t-139.5 -233.5t-48.5 -310q0 -89 37 -141z" />
    <glyph glyph-name="ugrave" unicode="&#xf9;" horiz-adv-x="1011" 
d="M586 1503l360 -192l-57 -84l-363 180zM985 1024h123l-238 -1024h-118l43 199q-7 -9 -19.5 -23.5t-51 -52.5t-78 -67t-95 -52.5t-107.5 -23.5q-115 0 -177 67t-62 182q0 93 41 271l123 524h120l-120 -516q-39 -171 -39 -256q0 -77 39.5 -119.5t113.5 -42.5q43 0 94.5 26
t94 63.5t78.5 75t56 63.5l21 26z" />
    <glyph glyph-name="uacute" unicode="&#xfa;" horiz-adv-x="1011" 
d="M985 1024h123l-238 -1024h-118l43 199q-7 -9 -19.5 -23.5t-51 -52.5t-78 -67t-95 -52.5t-107.5 -23.5q-115 0 -177 67t-62 182q0 93 41 271l123 524h120l-120 -516q-39 -171 -39 -256q0 -77 39.5 -119.5t113.5 -42.5q43 0 94.5 26t94 63.5t78.5 75t56 63.5l21 26z
M653 1231l-12 94l446 193l15 -109z" />
    <glyph glyph-name="ucircumflex" unicode="&#xfb;" horiz-adv-x="1011" 
d="M461 1208l311 297h84l178 -297h-125l-110 189l-199 -189h-139zM985 1024h123l-238 -1024h-118l43 199q-7 -9 -19.5 -23.5t-51 -52.5t-78 -67t-95 -52.5t-107.5 -23.5q-115 0 -177 67t-62 182q0 93 41 271l123 524h120l-120 -516q-39 -171 -39 -256q0 -77 39.5 -119.5
t113.5 -42.5q43 0 94.5 26t94 63.5t78.5 75t56 63.5l21 26z" />
    <glyph glyph-name="udieresis" unicode="&#xfc;" horiz-adv-x="1011" 
d="M524 1280l39 168h115l-39 -168h-115zM905 1280l37 168h115l-41 -168h-111zM985 1024h123l-238 -1024h-118l43 199q-7 -9 -19.5 -23.5t-51 -52.5t-78 -67t-95 -52.5t-107.5 -23.5q-115 0 -177 67t-62 182q0 93 41 271l123 524h120l-120 -516q-39 -171 -39 -256
q0 -77 39.5 -119.5t113.5 -42.5q43 0 94.5 26t94 63.5t78.5 75t56 63.5l21 26z" />
    <glyph glyph-name="yacute" unicode="&#xfd;" horiz-adv-x="925" 
d="M291 1024h121l28 -918h70l469 918h129l-766 -1483h-125l242 459h-133zM600 1231l-12 94l446 193l15 -109z" />
    <glyph glyph-name="thorn" unicode="&#xfe;" horiz-adv-x="983" 
d="M782 1042q81 0 137 -34t81.5 -87t33.5 -122.5t0 -136t-26 -132.5q-77 -287 -202 -418.5t-339 -131.5q-47 0 -99 4t-83 9t-31 7l-109 -457h-114l456 1932h117l-135 -562q1 0 10.5 7t17 12.5t23 15.5t28.5 17.5t32 18t36.5 18t39 15.5t41.5 13t42 8.5t43 3.5zM438 786
l-157 -669l206 -21q158 0 248.5 103.5t153.5 330.5q13 46 19.5 97t2.5 105t-20 96.5t-52.5 70t-90.5 27.5q-41 0 -87.5 -15t-84.5 -35.5t-70 -42t-50 -35t-18 -12.5z" />
    <glyph glyph-name="ydieresis" unicode="&#xff;" horiz-adv-x="925" 
d="M481 1280l39 168h115l-39 -168h-115zM862 1280l37 168h115l-41 -168h-111zM291 1024h121l28 -918h70l469 918h129l-766 -1483h-125l242 459h-133z" />
    <glyph glyph-name="Amacron" unicode="&#x100;" horiz-adv-x="1136" 
d="M659 1710l21 94h586l-25 -94h-582zM55 0l727 1423h258l47 -1423h-124l-17 391h-561l-203 -391h-127zM854 1311l-414 -809h506l-26 809h-66z" />
    <glyph glyph-name="amacron" unicode="&#x101;" horiz-adv-x="1009" 
d="M442 -20q-129 0 -192.5 75t-63.5 213q0 101 20.5 207.5t63.5 208.5t102.5 182t144.5 129t183 49q56 0 155.5 -12t170.5 -24l72 -13l-156 -665q-14 -57 -28 -139t-22 -135l-7 -54l-119 -4q31 190 39 233q-7 -10 -20.5 -27t-54.5 -60.5t-82 -76.5t-98 -60t-108 -27z
M702 936q-74 0 -138.5 -43.5t-109.5 -113.5t-77.5 -158.5t-48 -179t-15.5 -173.5q0 -90 37.5 -135t126.5 -45q39 0 90 30t96 72t83.5 84.5t61.5 72.5l23 30l125 528q-148 31 -254 31zM588 1315l22 96h547l-24 -96h-545z" />
    <glyph glyph-name="Abreve" unicode="&#x102;" horiz-adv-x="1136" 
d="M723 1886h108q-14 -85 20.5 -119t111.5 -34q70 0 128 42.5t76 110.5h109q-34 -120 -121.5 -186t-214.5 -66q-126 0 -183 63.5t-34 188.5zM55 0l727 1423h258l47 -1423h-124l-17 391h-561l-203 -391h-127zM854 1311l-414 -809h506l-26 809h-66z" />
    <glyph glyph-name="abreve" unicode="&#x103;" horiz-adv-x="1009" 
d="M442 -20q-129 0 -192.5 75t-63.5 213q0 101 20.5 207.5t63.5 208.5t102.5 182t144.5 129t183 49q56 0 155.5 -12t170.5 -24l72 -13l-156 -665q-14 -57 -28 -139t-22 -135l-7 -54l-119 -4q31 190 39 233q-7 -10 -20.5 -27t-54.5 -60.5t-82 -76.5t-98 -60t-108 -27z
M702 936q-74 0 -138.5 -43.5t-109.5 -113.5t-77.5 -158.5t-48 -179t-15.5 -173.5q0 -90 37.5 -135t126.5 -45q39 0 90 30t96 72t83.5 84.5t61.5 72.5l23 30l125 528q-148 31 -254 31zM629 1489h104q-20 -77 14.5 -124.5t120.5 -47.5q88 0 141.5 46.5t75.5 125.5h107
q-78 -272 -354 -272q-126 0 -181 75.5t-28 196.5z" />
    <glyph glyph-name="Aogonek" unicode="&#x104;" horiz-adv-x="1136" 
d="M55 0l727 1423h258l47 -1417h3l-3 -2v-4h-6q-63 -49 -127.5 -127.5t-64.5 -130.5q0 -45 57 -45q15 0 41 3t45 6l19 3l-13 -104q-86 -19 -145 -19q-68 0 -103.5 32.5t-35.5 90.5q0 67 66.5 150.5t142.5 146.5l-17 385h-561l-203 -391h-127zM854 1311l-414 -809h506
l-26 809h-66z" />
    <glyph glyph-name="aogonek" unicode="&#x105;" horiz-adv-x="1009" 
d="M842 -291l-13 -104q-86 -19 -145 -19q-68 0 -103.5 32.5t-35.5 90.5q0 72 74 161.5t149 147.5q3 15 11 63.5t15 91t11 58.5q-7 -10 -20.5 -27t-54.5 -60.5t-82 -76.5t-98 -60t-108 -27q-129 0 -192.5 75t-63.5 213q0 101 20.5 207.5t63.5 208.5t102.5 182t144.5 129
t183 49q56 0 155.5 -12t170.5 -24l72 -13l-156 -665q-14 -57 -28 -139t-22 -135l-7 -54h-11q-62 -48 -128 -128t-66 -132q0 -45 57 -45q15 0 41 3t45 6zM702 936q-74 0 -138.5 -43.5t-109.5 -113.5t-77.5 -158.5t-48 -179t-15.5 -173.5q0 -90 37.5 -135t126.5 -45
q39 0 90 30t96 72t83.5 84.5t61.5 72.5l23 30l125 528q-148 31 -254 31z" />
    <glyph glyph-name="Cacute" unicode="&#x106;" horiz-adv-x="1036" 
d="M975 129l-6 -104q-182 -45 -344 -45q-194 0 -291.5 103t-97.5 304q0 111 18.5 229t55.5 237.5t97 225t136 187.5t181.5 130t225.5 48q71 0 155.5 -11t133.5 -23l49 -11l-28 -103q-166 33 -318 33q-92 0 -174.5 -41.5t-144 -112.5t-111.5 -164.5t-81 -198.5t-47.5 -212
t-16.5 -209q0 -152 66 -224.5t210 -72.5q72 0 155 9t130 17zM854 1618l-16 92l448 195l19 -107z" />
    <glyph glyph-name="cacute" unicode="&#x107;" horiz-adv-x="827" 
d="M733 1044q49 0 110 -8t97 -16l37 -8l-31 -99q-127 23 -217 23q-82 0 -151 -36.5t-116 -97.5t-80 -143t-48 -172.5t-15 -185.5q0 -106 53 -159.5t173 -53.5q36 0 93.5 8t97.5 16l40 9l-6 -98q-139 -43 -262 -43q-157 0 -235 77t-78 224q0 119 20 229.5t63.5 208
t105.5 169.5t151.5 114t197.5 42zM614 1231l-12 94l447 193l14 -109z" />
    <glyph glyph-name="Ccircumflex" unicode="&#x108;" horiz-adv-x="1036" 
d="M975 129l-6 -104q-182 -45 -344 -45q-194 0 -291.5 103t-97.5 304q0 111 18.5 229t55.5 237.5t97 225t136 187.5t181.5 130t225.5 48q71 0 155.5 -11t133.5 -23l49 -11l-28 -103q-166 33 -318 33q-92 0 -174.5 -41.5t-144 -112.5t-111.5 -164.5t-81 -198.5t-47.5 -212
t-16.5 -209q0 -152 66 -224.5t210 -72.5q72 0 155 9t130 17zM709 1632l329 275h62l198 -275h-114l-125 176l-215 -176h-135z" />
    <glyph glyph-name="ccircumflex" unicode="&#x109;" horiz-adv-x="827" 
d="M733 1044q49 0 110 -8t97 -16l37 -8l-31 -99q-127 23 -217 23q-82 0 -151 -36.5t-116 -97.5t-80 -143t-48 -172.5t-15 -185.5q0 -106 53 -159.5t173 -53.5q36 0 93.5 8t97.5 16l40 9l-6 -98q-139 -43 -262 -43q-157 0 -235 77t-78 224q0 119 20 229.5t63.5 208
t105.5 169.5t151.5 114t197.5 42zM479 1208l309 297h64l178 -297h-115l-110 189l-199 -189h-127z" />
    <glyph glyph-name="Cdotaccent" unicode="&#x10a;" horiz-adv-x="1036" 
d="M975 129l-6 -104q-182 -45 -344 -45q-194 0 -291.5 103t-97.5 304q0 111 18.5 229t55.5 237.5t97 225t136 187.5t181.5 130t225.5 48q71 0 155.5 -11t133.5 -23l49 -11l-28 -103q-166 33 -318 33q-92 0 -174.5 -41.5t-144 -112.5t-111.5 -164.5t-81 -198.5t-47.5 -212
t-16.5 -209q0 -152 66 -224.5t210 -72.5q72 0 155 9t130 17zM944 1634l35 160h102l-34 -160h-103z" />
    <glyph glyph-name="cdotaccent" unicode="&#x10b;" horiz-adv-x="827" 
d="M733 1044q49 0 110 -8t97 -16l37 -8l-31 -99q-127 23 -217 23q-82 0 -151 -36.5t-116 -97.5t-80 -143t-48 -172.5t-15 -185.5q0 -106 53 -159.5t173 -53.5q36 0 93.5 8t97.5 16l40 9l-6 -98q-139 -43 -262 -43q-157 0 -235 77t-78 224q0 119 20 229.5t63.5 208
t105.5 169.5t151.5 114t197.5 42zM698 1249l39 160h105l-37 -160h-107z" />
    <glyph glyph-name="Ccaron" unicode="&#x10c;" horiz-adv-x="1036" 
d="M975 129l-6 -104q-182 -45 -344 -45q-194 0 -291.5 103t-97.5 304q0 111 18.5 229t55.5 237.5t97 225t136 187.5t181.5 130t225.5 48q71 0 155.5 -11t133.5 -23l49 -11l-28 -103q-166 33 -318 33q-92 0 -174.5 -41.5t-144 -112.5t-111.5 -164.5t-81 -198.5t-47.5 -212
t-16.5 -209q0 -152 66 -224.5t210 -72.5q72 0 155 9t130 17zM1358 1905l-320 -275h-73l-201 275h121l133 -183l211 183h129z" />
    <glyph glyph-name="ccaron" unicode="&#x10d;" horiz-adv-x="827" 
d="M793 1208h-66l-174 297h113l116 -194l203 194h127zM733 1044q49 0 110 -8t97 -16l37 -8l-31 -99q-127 23 -217 23q-82 0 -151 -36.5t-116 -97.5t-80 -143t-48 -172.5t-15 -185.5q0 -106 53 -159.5t173 -53.5q36 0 93.5 8t97.5 16l40 9l-6 -98q-139 -43 -262 -43
q-157 0 -235 77t-78 224q0 119 20 229.5t63.5 208t105.5 169.5t151.5 114t197.5 42z" />
    <glyph glyph-name="Dcaron" unicode="&#x10e;" horiz-adv-x="1243" 
d="M166 0h487q135 0 249 63.5t191 166t131.5 235t79.5 268.5t25 268q0 219 -92.5 320.5t-282.5 101.5h-460zM1198 1001q0 -89 -15 -187.5t-43.5 -198t-73.5 -189.5t-101 -160t-131.5 -111.5t-159.5 -41.5h-355l275 1198h336q143 0 205.5 -73.5t62.5 -236.5zM1272 1905
l-320 -275h-73l-201 275h121l133 -183l211 183h129z" />
    <glyph glyph-name="dcaron" unicode="&#x10f;" horiz-adv-x="1085" 
d="M1434 1423l-109 -467h-113l111 467h111zM1210 1479l-344 -1479h-118l45 201q-7 -9 -19.5 -24t-51.5 -53t-78.5 -67t-97 -53t-110.5 -24q-250 0 -250 284q0 105 21.5 214t65 210t103.5 180t143 126.5t177 47.5q57 0 127.5 -8.5t112.5 -17.5l41 -8l110 471h123zM827 352
l127 553q-137 31 -258 31q-71 0 -134.5 -43.5t-108 -114.5t-77 -160t-48 -180t-15.5 -174q0 -176 160 -176q43 0 95 27t96 66t82 78t60 66z" />
    <glyph glyph-name="Dcroat" unicode="&#x110;" horiz-adv-x="1251" 
d="M659 0h-487l150 651h-144l27 127h145l150 645h461q190 0 282 -101.5t92 -320.5q0 -132 -25 -268t-79.5 -268.5t-131.5 -235t-191 -166t-249 -63.5zM1204 1001q0 163 -62.5 236.5t-205.5 73.5h-336l-123 -533h305l-28 -127h-305l-123 -538h354q84 0 159.5 41.5
t131.5 111.5t101 160t73.5 189.5t43.5 198t15 187.5z" />
    <glyph glyph-name="dcroat" unicode="&#x111;" horiz-adv-x="1009" 
d="M1210 1479l-32 -136h114l-26 -116h-115l-285 -1227h-118l45 201q-7 -9 -19.5 -24t-51.5 -53t-78.5 -67t-97 -53t-110.5 -24q-250 0 -250 284q0 105 21.5 214t65 210t103.5 180t143 126.5t177 47.5q57 0 127.5 -8.5t112.5 -17.5l41 -8l51 219h-307l24 116h310l32 136h123z
M827 352l127 553q-137 31 -258 31q-71 0 -134.5 -43.5t-108 -114.5t-77 -160t-48 -180t-15.5 -174q0 -176 160 -176q43 0 95 27t96 66t82 78t60 66z" />
    <glyph glyph-name="Emacron" unicode="&#x112;" horiz-adv-x="1038" 
d="M641 1696l21 94h585l-24 -94h-582zM166 0l328 1423h784l-27 -112h-657l-123 -529h545l-27 -112h-543l-129 -557h658l-27 -113h-782z" />
    <glyph glyph-name="emacron" unicode="&#x113;" horiz-adv-x="937" 
d="M524 90q68 0 152 13t134 25l50 13l-8 -100q-20 -7 -54.5 -17t-129.5 -27t-176 -17q-143 0 -222.5 77t-79.5 226q0 107 20 212.5t64.5 205t107.5 175t156 121t203 45.5q137 0 213 -56.5t76 -176.5q0 -180 -139 -253t-436 -73h-115q-25 -105 -25 -188q0 -98 56.5 -151.5
t152.5 -53.5zM358 584h121q226 0 327 48t101 175q0 70 -43 100.5t-129 30.5q-270 0 -377 -354zM541 1315l22 96h547l-25 -96h-544z" />
    <glyph glyph-name="Ebreve" unicode="&#x114;" horiz-adv-x="1038" 
d="M696 1888h109q-14 -85 20 -119t111 -34q70 0 128.5 42.5t76.5 110.5h108q-34 -120 -121.5 -186t-214.5 -66q-126 0 -183 63.5t-34 188.5zM166 0l328 1423h784l-27 -112h-657l-123 -529h545l-27 -112h-543l-129 -557h658l-27 -113h-782z" />
    <glyph glyph-name="ebreve" unicode="&#x115;" horiz-adv-x="937" 
d="M524 90q68 0 152 13t134 25l50 13l-8 -100q-20 -7 -54.5 -17t-129.5 -27t-176 -17q-143 0 -222.5 77t-79.5 226q0 107 20 212.5t64.5 205t107.5 175t156 121t203 45.5q137 0 213 -56.5t76 -176.5q0 -180 -139 -253t-436 -73h-115q-25 -105 -25 -188q0 -98 56.5 -151.5
t152.5 -53.5zM358 584h121q226 0 327 48t101 175q0 70 -43 100.5t-129 30.5q-270 0 -377 -354zM567 1489h105q-20 -77 14.5 -124.5t120.5 -47.5q88 0 141.5 46.5t75.5 125.5h106q-78 -272 -354 -272q-126 0 -181 75.5t-28 196.5z" />
    <glyph glyph-name="Edotaccent" unicode="&#x116;" horiz-adv-x="1038" 
d="M881 1729l34 159h103l-35 -159h-102zM166 0l328 1423h784l-27 -112h-657l-123 -529h545l-27 -112h-543l-129 -557h658l-27 -113h-782z" />
    <glyph glyph-name="edotaccent" unicode="&#x117;" horiz-adv-x="937" 
d="M524 90q68 0 152 13t134 25l50 13l-8 -100q-20 -7 -54.5 -17t-129.5 -27t-176 -17q-143 0 -222.5 77t-79.5 226q0 107 20 212.5t64.5 205t107.5 175t156 121t203 45.5q137 0 213 -56.5t76 -176.5q0 -180 -139 -253t-436 -73h-115q-25 -105 -25 -188q0 -98 56.5 -151.5
t152.5 -53.5zM358 584h121q226 0 327 48t101 175q0 70 -43 100.5t-129 30.5q-270 0 -377 -354zM709 1249l39 160h104l-37 -160h-106z" />
    <glyph glyph-name="Eogonek" unicode="&#x118;" horiz-adv-x="1038" 
d="M166 0l328 1423h784l-27 -112h-657l-123 -529h545l-27 -112h-543l-129 -557h658l-27 -113h-45q-63 -49 -127.5 -127.5t-64.5 -130.5q0 -45 57 -45q15 0 41 3t45 6l18 3l-12 -104q-86 -19 -145 -19q-68 0 -104 32.5t-36 90.5q0 66 62.5 146t138.5 145h-610z" />
    <glyph glyph-name="eogonek" unicode="&#x119;" horiz-adv-x="937" 
d="M807 -250l-12 -104q-87 -19 -146 -19q-68 0 -103.5 32.5t-35.5 90.5q0 101 149 246q-85 -16 -167 -16q-143 0 -222.5 77t-79.5 226q0 107 20 212.5t64.5 205t107.5 175t156 121t203 45.5q137 0 213 -56.5t76 -176.5q0 -180 -139 -253t-436 -73h-115q-25 -105 -25 -188
q0 -98 56.5 -151.5t152.5 -53.5q68 0 152 13t134 25l50 13l-8 -100q-11 -4 -25 -8q-64 -53 -123 -126.5t-59 -123.5q0 -45 57 -45q15 0 41 3t45 6zM358 584h121q226 0 327 48t101 175q0 70 -43 100.5t-129 30.5q-270 0 -377 -354z" />
    <glyph glyph-name="Ecaron" unicode="&#x11a;" horiz-adv-x="1038" 
d="M1264 1913l-320 -275h-74l-200 275h121l133 -182l211 182h129zM166 0l328 1423h784l-27 -112h-657l-123 -529h545l-27 -112h-543l-129 -557h658l-27 -113h-782z" />
    <glyph glyph-name="ecaron" unicode="&#x11b;" horiz-adv-x="937" 
d="M524 90q68 0 152 13t134 25l50 13l-8 -100q-20 -7 -54.5 -17t-129.5 -27t-176 -17q-143 0 -222.5 77t-79.5 226q0 107 20 212.5t64.5 205t107.5 175t156 121t203 45.5q137 0 213 -56.5t76 -176.5q0 -180 -139 -253t-436 -73h-115q-25 -105 -25 -188q0 -98 56.5 -151.5
t152.5 -53.5zM358 584h121q226 0 327 48t101 175q0 70 -43 100.5t-129 30.5q-270 0 -377 -354zM817 1208h-65l-174 297h112l117 -194l203 194h127z" />
    <glyph glyph-name="Gcircumflex" unicode="&#x11c;" horiz-adv-x="1173" 
d="M715 1608l309 297h86l176 -297h-125l-110 188l-199 -188h-137zM825 616l25 109h362l-161 -688q-21 -6 -58.5 -15.5t-142 -25.5t-195.5 -16q-417 0 -417 393q0 153 26.5 302t84.5 289t141 246t204.5 170t266.5 64q90 0 191.5 -15t157.5 -30l56 -15l-33 -98
q-207 45 -389 45q-115 0 -213 -61.5t-163 -161t-111.5 -226.5t-67 -257t-20.5 -254q0 -279 299 -279q56 0 125.5 9t110.5 19l42 9l115 487h-236z" />
    <glyph glyph-name="gcircumflex" unicode="&#x11d;" horiz-adv-x="950" 
d="M387 -485q-159 0 -252.5 72t-93.5 194q0 56 25 106.5t70 91t86 68t95 55.5q-30 30 -30 84q0 40 27 90t54 80l27 31q-141 63 -141 242q0 57 16.5 115t51.5 112t82.5 96t115 67t144.5 25q47 0 93 -8t69 -16l22 -8l303 12l-25 -109h-198q39 -59 39 -149q0 -55 -16 -111.5
t-51 -110.5t-84.5 -96t-122 -68t-158.5 -26l-62 4q-8 -10 -20 -26.5t-32 -56.5t-20 -66q0 -37 39 -52.5t150 -29.5q171 -21 242 -73.5t71 -166.5q0 -152 -141.5 -262t-374.5 -110zM567 20q-129 16 -180 35q-92 -47 -159.5 -113t-67.5 -135q0 -83 60.5 -134.5t176.5 -51.5
q102 0 189.5 31t141.5 91t54 136q0 69 -47.5 99t-167.5 42zM551 459q75 0 135 30.5t94 77t52 94.5t18 91q0 95 -45 140.5t-150 45.5q-87 0 -153.5 -50t-97.5 -118t-31 -135q0 -176 178 -176zM446 1208l310 297h63l178 -297h-114l-111 189l-199 -189h-127z" />
    <glyph glyph-name="Gbreve" unicode="&#x11e;" horiz-adv-x="1173" 
d="M786 1888h119q-4 -14 -4 -45q0 -55 35.5 -89t103.5 -34q82 0 139 46t78 122h117q-35 -127 -133.5 -206.5t-236.5 -79.5q-105 0 -163.5 60.5t-60.5 152.5q0 35 6 73zM825 616l25 109h362l-161 -688q-21 -6 -58.5 -15.5t-142 -25.5t-195.5 -16q-417 0 -417 393
q0 153 26.5 302t84.5 289t141 246t204.5 170t266.5 64q90 0 191.5 -15t157.5 -30l56 -15l-33 -98q-207 45 -389 45q-115 0 -213 -61.5t-163 -161t-111.5 -226.5t-67 -257t-20.5 -254q0 -279 299 -279q56 0 125.5 9t110.5 19l42 9l115 487h-236z" />
    <glyph glyph-name="gbreve" unicode="&#x11f;" horiz-adv-x="950" 
d="M387 -485q-159 0 -252.5 72t-93.5 194q0 56 25 106.5t70 91t86 68t95 55.5q-30 30 -30 84q0 40 27 90t54 80l27 31q-141 63 -141 242q0 57 16.5 115t51.5 112t82.5 96t115 67t144.5 25q47 0 93 -8t69 -16l22 -8l303 12l-25 -109h-198q39 -59 39 -149q0 -55 -16 -111.5
t-51 -110.5t-84.5 -96t-122 -68t-158.5 -26l-62 4q-8 -10 -20 -26.5t-32 -56.5t-20 -66q0 -37 39 -52.5t150 -29.5q171 -21 242 -73.5t71 -166.5q0 -152 -141.5 -262t-374.5 -110zM567 20q-129 16 -180 35q-92 -47 -159.5 -113t-67.5 -135q0 -83 60.5 -134.5t176.5 -51.5
q102 0 189.5 31t141.5 91t54 136q0 69 -47.5 99t-167.5 42zM551 459q75 0 135 30.5t94 77t52 94.5t18 91q0 95 -45 140.5t-150 45.5q-87 0 -153.5 -50t-97.5 -118t-31 -135q0 -176 178 -176zM565 1489h105q-20 -77 14.5 -124.5t120.5 -47.5q88 0 141.5 46.5t75.5 125.5h106
q-78 -272 -354 -272q-126 0 -181 75.5t-28 196.5z" />
    <glyph glyph-name="Gdotaccent" unicode="&#x120;" horiz-adv-x="1173" 
d="M975 1665l37 160h116l-36 -160h-117zM825 616l25 109h362l-161 -688q-21 -6 -58.5 -15.5t-142 -25.5t-195.5 -16q-417 0 -417 393q0 153 26.5 302t84.5 289t141 246t204.5 170t266.5 64q90 0 191.5 -15t157.5 -30l56 -15l-33 -98q-207 45 -389 45q-115 0 -213 -61.5
t-163 -161t-111.5 -226.5t-67 -257t-20.5 -254q0 -279 299 -279q56 0 125.5 9t110.5 19l42 9l115 487h-236z" />
    <glyph glyph-name="gdotaccent" unicode="&#x121;" horiz-adv-x="950" 
d="M387 -485q-159 0 -252.5 72t-93.5 194q0 56 25 106.5t70 91t86 68t95 55.5q-30 30 -30 84q0 40 27 90t54 80l27 31q-141 63 -141 242q0 57 16.5 115t51.5 112t82.5 96t115 67t144.5 25q47 0 93 -8t69 -16l22 -8l303 12l-25 -109h-198q39 -59 39 -149q0 -55 -16 -111.5
t-51 -110.5t-84.5 -96t-122 -68t-158.5 -26l-62 4q-8 -10 -20 -26.5t-32 -56.5t-20 -66q0 -37 39 -52.5t150 -29.5q171 -21 242 -73.5t71 -166.5q0 -152 -141.5 -262t-374.5 -110zM567 20q-129 16 -180 35q-92 -47 -159.5 -113t-67.5 -135q0 -83 60.5 -134.5t176.5 -51.5
q102 0 189.5 31t141.5 91t54 136q0 69 -47.5 99t-167.5 42zM551 459q75 0 135 30.5t94 77t52 94.5t18 91q0 95 -45 140.5t-150 45.5q-87 0 -153.5 -50t-97.5 -118t-31 -135q0 -176 178 -176zM678 1249l39 160h104l-37 -160h-106z" />
    <glyph glyph-name="Gcommaaccent" unicode="&#x122;" horiz-adv-x="1173" 
d="M825 616l25 109h362l-161 -688q-21 -6 -58.5 -15.5t-142 -25.5t-195.5 -16q-417 0 -417 393q0 153 26.5 302t84.5 289t141 246t204.5 170t266.5 64q90 0 191.5 -15t157.5 -30l56 -15l-33 -98q-207 45 -389 45q-115 0 -213 -61.5t-163 -161t-111.5 -226.5t-67 -257
t-20.5 -254q0 -279 299 -279q56 0 125.5 9t110.5 19l42 9l115 487h-236zM541 -150l-174 -415h98l190 415h-114z" />
    <glyph glyph-name="gcommaaccent" unicode="&#x123;" horiz-adv-x="950" 
d="M844 1614h100l-174 -416h-115zM387 -485q-159 0 -252.5 72t-93.5 194q0 56 25 106.5t70 91t86 68t95 55.5q-30 30 -30 84q0 40 27 90t54 80l27 31q-141 63 -141 242q0 57 16.5 115t51.5 112t82.5 96t115 67t144.5 25q47 0 93 -8t69 -16l22 -8l303 12l-25 -109h-198
q39 -59 39 -149q0 -55 -16 -111.5t-51 -110.5t-84.5 -96t-122 -68t-158.5 -26l-62 4q-8 -10 -20 -26.5t-32 -56.5t-20 -66q0 -37 39 -52.5t150 -29.5q171 -21 242 -73.5t71 -166.5q0 -152 -141.5 -262t-374.5 -110zM567 20q-129 16 -180 35q-92 -47 -159.5 -113t-67.5 -135
q0 -83 60.5 -134.5t176.5 -51.5q102 0 189.5 31t141.5 91t54 136q0 69 -47.5 99t-167.5 42zM551 459q75 0 135 30.5t94 77t52 94.5t18 91q0 95 -45 140.5t-150 45.5q-87 0 -153.5 -50t-97.5 -118t-31 -135q0 -176 178 -176z" />
    <glyph glyph-name="Hcircumflex" unicode="&#x124;" horiz-adv-x="1277" 
d="M987 0l152 659h-697l-151 -659h-125l328 1423h127l-152 -651h696l152 651h125l-328 -1423h-127zM700 1632l330 275h62l198 -275h-114l-125 176l-215 -176h-136z" />
    <glyph glyph-name="hcircumflex" unicode="&#x125;" horiz-adv-x="1013" 
d="M264 0h-123l342 1479h123l-151 -656q7 9 19 24t50.5 53t78 67t95 53t107.5 24q115 0 176 -67.5t61 -183.5q0 -91 -41 -273l-120 -520h-121l121 516q37 162 37 256q0 162 -152 162q-43 0 -94 -26.5t-94 -64.5t-79.5 -76t-57.5 -65l-21 -26zM604 1571l330 274h61l199 -274
h-115l-125 176l-215 -176h-135z" />
    <glyph glyph-name="Hbar" unicode="&#x126;" horiz-adv-x="1312" 
d="M252 1040v2l24 115h173l61 266h121l-62 -266h709l61 266h119l-61 -266h170l-31 -117h-166l-240 -1040h-118l149 655h-708l-150 -655h-121l240 1040h-170zM481 776h709l61 264h-708z" />
    <glyph glyph-name="hbar" unicode="&#x127;" horiz-adv-x="1013" 
d="M307 1210l25 109h114l37 160h123l-37 -160h310l-27 -109h-309l-88 -387q7 9 19 24t50.5 53t78 67t95 53t107.5 24q115 0 176 -67.5t61 -183.5q0 -91 -41 -273l-120 -520h-121l121 516q37 162 37 256q0 162 -152 162q-43 0 -94 -26.5t-94 -64.5t-79.5 -76t-57.5 -65
l-21 -26l-156 -676h-123l279 1210h-113z" />
    <glyph glyph-name="Itilde" unicode="&#x128;" horiz-adv-x="456" 
d="M948 1855l6 -86q-5 -5 -14 -13t-35 -28.5t-49 -36.5t-51 -29t-47 -13q-37 0 -95 30t-111 60t-79 30q-19 0 -64 -26t-81 -52l-35 -26l-4 90q15 14 40 34t81 53.5t88 33.5q41 0 99 -30t109.5 -59.5t75.5 -29.5q17 0 58.5 24.5t74.5 48.5zM166 0l328 1423h127l-330 -1423
h-125z" />
    <glyph glyph-name="itilde" unicode="&#x129;" horiz-adv-x="403" 
d="M139 0l238 1024h123l-238 -1024h-123zM788 1462l9 -94q-12 -11 -32.5 -27.5t-69 -43.5t-79.5 -27q-40 0 -137.5 50t-124.5 50q-19 0 -59 -22.5t-70 -45.5l-30 -22l-5 96q14 12 36 29t74 45.5t83 28.5q45 0 139 -50.5t117 -50.5q17 0 54.5 21t66.5 42z" />
    <glyph glyph-name="Imacron" unicode="&#x12a;" horiz-adv-x="456" 
d="M315 1716l21 94h586l-25 -94h-582zM166 0l328 1423h127l-330 -1423h-125z" />
    <glyph glyph-name="imacron" unicode="&#x12b;" horiz-adv-x="403" 
d="M139 0l238 1024h123l-238 -1024h-123zM215 1315l23 96h546l-24 -96h-545z" />
    <glyph glyph-name="Ibreve" unicode="&#x12c;" horiz-adv-x="456" 
d="M383 1886h109q-14 -85 20 -119t111 -34q70 0 128 42.5t76 110.5h109q-34 -120 -121.5 -186t-214.5 -66q-126 0 -183 63.5t-34 188.5zM166 0l328 1423h127l-330 -1423h-125z" />
    <glyph glyph-name="ibreve" unicode="&#x12d;" horiz-adv-x="403" 
d="M139 0l238 1024h123l-238 -1024h-123zM256 1489h104q-20 -76 15 -124t121 -48q88 0 141.5 46.5t75.5 125.5h106q-78 -272 -354 -272q-126 0 -181 75.5t-28 196.5z" />
    <glyph glyph-name="Iogonek" unicode="&#x12e;" horiz-adv-x="456" 
d="M248 -291l-12 -104q-87 -19 -146 -19q-68 0 -103.5 32.5t-35.5 90.5q0 69 70.5 155.5t146.5 147.5l326 1411h127l-330 -1423q-67 -47 -136 -125.5t-69 -132.5q0 -45 57 -45q15 0 41 3t45 6z" />
    <glyph glyph-name="iogonek" unicode="&#x12f;" horiz-adv-x="405" 
d="M223 -291l-12 -104q-86 -19 -145 -19q-68 0 -104 32.5t-36 90.5q0 70 70.5 157t146.5 148l236 1010h123l-238 -1024q-69 -53 -136 -129t-67 -129q0 -45 58 -45q15 0 41 3t44 6zM432 1262l37 163h125l-37 -163h-125z" />
    <glyph glyph-name="Idotaccent" unicode="&#x130;" horiz-adv-x="456" 
d="M561 1729l35 159h102l-34 -159h-103zM166 0l328 1423h127l-330 -1423h-125z" />
    <glyph glyph-name="dotlessi" unicode="&#x131;" horiz-adv-x="403" 
d="M139 0l238 1024h123l-238 -1024h-123z" />
    <glyph glyph-name="Jcircumflex" unicode="&#x134;" horiz-adv-x="532" 
d="M702 1423l-274 -1190q-20 -87 -34.5 -138t-38 -99t-48.5 -71t-68 -41t-95 -23.5t-130 -5.5l21 112q49 1 80.5 4.5t59 16t44 29.5t33 51.5t27.5 74.5t26 105l273 1175h124zM371 1632l329 275h62l199 -275h-115l-125 176l-215 -176h-135z" />
    <glyph glyph-name="jcircumflex" unicode="&#x135;" horiz-adv-x="403" 
d="M139 0l238 1024h123l-238 -1024q-20 -85 -33 -133t-36.5 -97t-45.5 -74.5t-67.5 -59t-93.5 -58t-133 -63.5l-41 100q70 36 109 57t76.5 49t54 48t35 57.5t28 73t24.5 100.5zM186 1208l310 297h63l178 -297h-114l-111 189l-199 -189h-127z" />
    <glyph glyph-name="Kcommaaccent" unicode="&#x136;" horiz-adv-x="1056" 
d="M477 -150l-174 -415h98l191 415h-115zM885 0l-230 645l-217 -4l-147 -641h-125l328 1423h127l-156 -669l201 4l536 665h144l-580 -718l252 -705h-133z" />
    <glyph glyph-name="kcommaaccent" unicode="&#x137;" horiz-adv-x="901" 
d="M195 -565l174 415h114l-190 -415h-98zM264 0h-123l342 1479h123l-200 -871l145 4l399 412h146l-453 -471l209 -553h-131l-193 506l-149 -2z" />
    <glyph glyph-name="Lacute" unicode="&#x139;" horiz-adv-x="892" 
d="M653 1618l-16 92l448 195l19 -107zM879 0h-713l328 1423h127l-304 -1310h586z" />
    <glyph glyph-name="lacute" unicode="&#x13a;" horiz-adv-x="423" 
d="M152 0l342 1479h120l-342 -1479h-120zM516 1618l-16 92l448 195l19 -107z" />
    <glyph glyph-name="Lcommaaccent" unicode="&#x13b;" horiz-adv-x="892" 
d="M446 -150l-174 -415h99l190 415h-115zM879 0h-713l328 1423h127l-304 -1310h586z" />
    <glyph glyph-name="lcommaaccent" unicode="&#x13c;" horiz-adv-x="423" 
d="M123 -150l-174 -415h98l191 415h-115zM152 0l342 1479h120l-342 -1479h-120z" />
    <glyph glyph-name="Lcaron" unicode="&#x13d;" horiz-adv-x="921" 
d="M1116 1423l-108 -467h-113l109 467h112zM879 0h-713l328 1423h127l-304 -1310h586z" />
    <glyph glyph-name="lcaron" unicode="&#x13e;" horiz-adv-x="489" 
d="M840 1423l-111 -467h-111l109 467h113zM152 0l342 1479h120l-342 -1479h-120z" />
    <glyph glyph-name="Lslash" unicode="&#x141;" horiz-adv-x="894" 
d="M883 0h-713l133 580l-123 -78v2l-41 92l195 123l164 704h127l-144 -612l330 205l39 -92l-399 -252l-129 -559h585z" />
    <glyph glyph-name="lslash" unicode="&#x142;" horiz-adv-x="542" 
d="M205 0l139 600l-151 -92l-43 88l225 139l172 744h121l-152 -656l156 99l41 -93l-230 -141l-157 -688h-121z" />
    <glyph glyph-name="Nacute" unicode="&#x143;" horiz-adv-x="1280" 
d="M829 1618l-16 92l449 195l18 -107zM166 0l328 1423h237l248 -1298h43l299 1298h123l-328 -1423h-229l-254 1303h-45l-301 -1303h-121z" />
    <glyph glyph-name="nacute" unicode="&#x144;" horiz-adv-x="1011" 
d="M139 0h123l158 678q8 10 21.5 27.5t54.5 61.5t80.5 78t92 61.5t95.5 27.5q77 0 115.5 -42t38.5 -120q0 -85 -39 -256l-121 -516h121l122 524q41 178 41 269q0 117 -61.5 184t-177.5 67q-52 0 -107 -22.5t-96.5 -55t-76 -64.5t-52.5 -54l-18 -23l43 199h-119zM618 1231
l-12 94l447 193l14 -109z" />
    <glyph glyph-name="Ncommaaccent" unicode="&#x145;" horiz-adv-x="1280" 
d="M575 -150l-174 -415h99l190 415h-115zM166 0l328 1423h237l248 -1298h43l299 1298h123l-328 -1423h-229l-254 1303h-45l-301 -1303h-121z" />
    <glyph glyph-name="ncommaaccent" unicode="&#x146;" horiz-adv-x="1011" 
d="M262 0h-123l238 1024h119l-43 -199q7 9 19 23.5t50.5 52.5t78 67t95 52.5t107.5 23.5q116 0 177.5 -67t61.5 -184q0 -91 -41 -269l-122 -524h-121l121 516q39 171 39 256q0 78 -38.5 120t-115.5 42q-43 0 -94.5 -26.5t-94 -64t-78.5 -75t-57 -64.5l-20 -26zM270 -565
l174 415h115l-190 -415h-99z" />
    <glyph glyph-name="Ncaron" unicode="&#x147;" horiz-adv-x="1280" 
d="M1358 1896l-320 -274h-73l-201 274h121l133 -182l211 182h129zM166 0l328 1423h237l248 -1298h43l299 1298h123l-328 -1423h-229l-254 1303h-45l-301 -1303h-121z" />
    <glyph glyph-name="ncaron" unicode="&#x148;" horiz-adv-x="1011" 
d="M262 0h-123l238 1024h119l-43 -199q7 9 19 23.5t50.5 52.5t78 67t95 52.5t107.5 23.5q116 0 177.5 -67t61.5 -184q0 -91 -41 -269l-122 -524h-121l121 516q39 171 39 256q0 78 -38.5 120t-115.5 42q-43 0 -94.5 -26.5t-94 -64t-78.5 -75t-57 -64.5l-20 -26zM813 1208h-65
l-175 297h113l117 -194l203 194h127z" />
    <glyph glyph-name="Eng" unicode="&#x14a;" horiz-adv-x="1280" 
d="M166 0l328 1423h239l248 -1298h43l299 1298h121l-297 -1290l-29 -125q-20 -88 -34.5 -139t-37.5 -99.5t-47.5 -71t-66.5 -41t-93.5 -23.5t-129.5 -5l20 113q70 0 109.5 8.5t70 38.5t47.5 76.5t37 134.5h-108l-254 1303h-43l-303 -1303h-119z" />
    <glyph glyph-name="eng" unicode="&#x14b;" horiz-adv-x="1001" 
d="M254 0h-115l240 1024h117l-37 -143q65 60 156.5 110.5t179.5 50.5q125 0 181 -50t60 -171q5 -92 -43 -291l-125 -534q-30 -127 -75 -205t-121 -137.5t-217 -130.5l-25 112q119 64 177.5 111.5t93.5 110.5t61 174l117 499q42 170 39 254q-2 74 -39.5 107t-124.5 33
q-64 0 -144 -39.5t-128 -78.5l-48 -40z" />
    <glyph glyph-name="Omacron" unicode="&#x14c;" horiz-adv-x="1292" 
d="M684 92q143 0 252 86q101 80 174 225.5t105 301.5t32 309q0 165 -75.5 241t-239.5 76q-131 0 -236 -82q-104 -81 -180.5 -230.5t-111.5 -307t-35 -303.5q0 -172 71.5 -244t243.5 -72zM672 -20q-228 0 -330 97.5t-102 325.5q0 260 85 504t240 387q166 150 375 150
q218 0 328 -103.5t110 -320.5q0 -276 -88 -525t-254 -386q-154 -129 -364 -129zM737 1696l21 94h585l-24 -94h-582z" />
    <glyph glyph-name="omacron" unicode="&#x14d;" horiz-adv-x="1011" 
d="M707 1042q170 0 257 -84.5t87 -252.5q0 -196 -62.5 -360t-183.5 -264.5t-277 -100.5q-167 0 -251 78.5t-84 244.5q0 198 65 366.5t183.5 270.5t265.5 102zM528 88q117 0 209.5 86t140.5 226.5t48 306.5q0 105 -55 167t-164 62q-113 0 -204 -89.5t-139.5 -233.5
t-48.5 -310q0 -215 213 -215zM512 1315l23 96h546l-24 -96h-545z" />
    <glyph glyph-name="Obreve" unicode="&#x14e;" horiz-adv-x="1292" 
d="M788 1888h109q-14 -85 20 -119t111 -34q70 0 128.5 42.5t76.5 110.5h108q-34 -120 -121 -186t-214 -66q-126 0 -183.5 63.5t-34.5 188.5zM684 92q143 0 252 86q101 80 174 225.5t105 301.5t32 309q0 165 -75.5 241t-239.5 76q-131 0 -236 -82q-104 -81 -180.5 -230.5
t-111.5 -307t-35 -303.5q0 -172 71.5 -244t243.5 -72zM672 -20q-228 0 -330 97.5t-102 325.5q0 260 85 504t240 387q166 150 375 150q218 0 328 -103.5t110 -320.5q0 -276 -88 -525t-254 -386q-154 -129 -364 -129z" />
    <glyph glyph-name="obreve" unicode="&#x14f;" horiz-adv-x="1011" 
d="M707 1042q170 0 257 -84.5t87 -252.5q0 -196 -62.5 -360t-183.5 -264.5t-277 -100.5q-167 0 -251 78.5t-84 244.5q0 198 65 366.5t183.5 270.5t265.5 102zM528 88q117 0 209.5 86t140.5 226.5t48 306.5q0 105 -55 167t-164 62q-113 0 -204 -89.5t-139.5 -233.5
t-48.5 -310q0 -215 213 -215zM561 1489h105q-20 -77 14.5 -124.5t120.5 -47.5q88 0 141.5 46.5t75.5 125.5h106q-78 -272 -354 -272q-126 0 -181 75.5t-28 196.5z" />
    <glyph glyph-name="Ohungarumlaut" unicode="&#x150;" horiz-adv-x="1292" 
d="M1159 1595l-57 58l362 233l68 -59zM780 1597l-61 56l368 235l64 -61zM684 92q143 0 252 86q101 80 174 225.5t105 301.5t32 309q0 165 -75.5 241t-239.5 76q-131 0 -236 -82q-104 -81 -180.5 -230.5t-111.5 -307t-35 -303.5q0 -172 71.5 -244t243.5 -72zM672 -20
q-228 0 -330 97.5t-102 325.5q0 260 85 504t240 387q166 150 375 150q218 0 328 -103.5t110 -320.5q0 -276 -88 -525t-254 -386q-154 -129 -364 -129z" />
    <glyph glyph-name="ohungarumlaut" unicode="&#x151;" horiz-adv-x="1011" 
d="M707 1042q170 0 257 -84.5t87 -252.5q0 -196 -62.5 -360t-183.5 -264.5t-277 -100.5q-167 0 -251 78.5t-84 244.5q0 198 65 366.5t183.5 270.5t265.5 102zM528 88q117 0 209.5 86t140.5 226.5t48 306.5q0 105 -55 167t-164 62q-113 0 -204 -89.5t-139.5 -233.5
t-48.5 -310q0 -215 213 -215zM901 1200l-57 72l352 258l66 -74zM535 1200l-58 72l352 258l64 -74z" />
    <glyph glyph-name="OE" unicode="&#x152;" horiz-adv-x="1771" 
d="M1677 -2h-774q-211 -18 -293 -18q-198 0 -290 90.5t-95 269.5q-3 143 49 367q44 186 102.5 320t140 230t190.5 143.5t249 47.5q26 0 134.5 -8t146.5 -13h778l-26 -124h-662l-125 -515h545l-27 -122l-542 4l-129 -545h659zM649 106q107 0 277 17l282 1186q-114 14 -270 14
q-115 0 -201 -38t-149 -118t-106.5 -189.5t-80.5 -268.5q-49 -192 -49 -326q0 -142 69 -209.5t228 -67.5z" />
    <glyph glyph-name="oe" unicode="&#x153;" horiz-adv-x="1656" 
d="M1196 96q60 0 148.5 5t147.5 9l58 5l-18 -107q-213 -28 -371 -28q-235 0 -274 190q-62 -99 -152.5 -144.5t-230.5 -45.5q-161 0 -237.5 59t-80.5 188q-6 129 37 301q32 134 73.5 227t104 159t149.5 97t204 31q130 0 201.5 -51.5t88.5 -159.5q124 211 388 211
q288 0 294 -272q3 -93 -26 -213l-29 -100l-651 4q-29 -127 -27 -182q2 -92 50.5 -137.5t152.5 -45.5zM528 96q54 0 99 11.5t78 29t61.5 50.5t47.5 64t37.5 81.5t30.5 91t29 104.5q10 45 14 65.5t9.5 59.5t4.5 71.5t-7 63.5q-15 72 -64.5 106t-138.5 34q-159 0 -245 -92
t-136 -308q-43 -179 -41 -266q3 -88 53.5 -127t167.5 -39zM1044 565l535 -4q27 114 27 189q-1 93 -50.5 134.5t-148.5 41.5q-136 0 -227.5 -86.5t-135.5 -274.5z" />
    <glyph glyph-name="Racute" unicode="&#x154;" horiz-adv-x="1159" 
d="M793 553l157 -553h127l-166 569q66 15 128 51.5t120 97.5t93.5 159.5t35.5 218.5q0 175 -87 251t-265 76h-442l-328 -1423h125l129 553h373zM1157 1092q0 -190 -104.5 -309t-276.5 -119h-332l150 649h326q125 0 181 -50t56 -171zM743 1618l-16 92l449 195l18 -107z" />
    <glyph glyph-name="racute" unicode="&#x155;" horiz-adv-x="636" 
d="M139 0l240 1024h121l-37 -154q22 15 60 38.5t139 71t184 64.5l-31 -124q-62 -15 -155.5 -55.5t-156.5 -73.5l-63 -33l-176 -758h-125zM420 1231l-12 94l446 193l14 -109z" />
    <glyph glyph-name="Rcommaaccent" unicode="&#x156;" horiz-adv-x="1159" 
d="M352 -565l174 415h115l-190 -415h-99zM950 0l-157 553h-373l-129 -553h-125l328 1423h442q178 0 265 -76t87 -251q0 -120 -35.5 -218.5t-93.5 -159.5t-120 -97.5t-128 -51.5l166 -569h-127zM1157 1092q0 121 -56 171t-181 50h-326l-150 -649h332q172 0 276.5 119
t104.5 309z" />
    <glyph glyph-name="rcommaaccent" unicode="&#x157;" horiz-adv-x="636" 
d="M139 0l240 1024h121l-37 -154q22 15 60 38.5t139 71t184 64.5l-31 -124q-62 -15 -155.5 -55.5t-156.5 -73.5l-63 -33l-176 -758h-125zM123 -150l-174 -415h98l191 415h-115z" />
    <glyph glyph-name="Rcaron" unicode="&#x158;" horiz-adv-x="1159" 
d="M1247 1896l-319 -274h-74l-201 274h121l133 -182l211 182h129zM793 553l157 -553h127l-166 569q66 15 128 51.5t120 97.5t93.5 159.5t35.5 218.5q0 175 -87 251t-265 76h-442l-328 -1423h125l129 553h373zM1157 1092q0 -190 -104.5 -309t-276.5 -119h-332l150 649h326
q125 0 181 -50t56 -171z" />
    <glyph glyph-name="rcaron" unicode="&#x159;" horiz-adv-x="636" 
d="M139 0l240 1024h121l-37 -154q22 15 60 38.5t139 71t184 64.5l-31 -124q-62 -15 -155.5 -55.5t-156.5 -73.5l-63 -33l-176 -758h-125zM637 1208h-66l-174 297h113l117 -194l202 194h127z" />
    <glyph glyph-name="Sacute" unicode="&#x15a;" horiz-adv-x="1024" 
d="M1210 1391l-22 -97q-214 37 -357 37q-170 0 -267 -83t-97 -244q0 -31 6 -55t22 -44t34 -34t53 -30t67 -27.5t88 -29.5q82 -28 132 -52t88.5 -60t54.5 -84t16 -117q0 -228 -136.5 -359.5t-367.5 -131.5q-84 0 -185.5 12t-161.5 24l-60 11l22 102q239 -37 393 -37
q173 0 270 98.5t97 272.5q0 92 -47 132.5t-190 86.5q-87 28 -139.5 51t-98.5 59t-66 85t-20 118q0 213 137 331t367 118q79 0 171 -13t145 -27zM725 1618l-16 92l448 195l19 -107z" />
    <glyph glyph-name="sacute" unicode="&#x15b;" horiz-adv-x="876" 
d="M989 1006l-26 -99q-191 29 -322 29q-115 0 -186.5 -65.5t-71.5 -157.5q0 -55 39.5 -81.5t161.5 -56.5q63 -15 100 -26t76 -29t59 -40t32.5 -55t12.5 -77q0 -178 -123.5 -273t-316.5 -95q-67 0 -146.5 10.5t-125.5 21.5l-46 11l23 98q188 -33 309 -33q133 0 217 60t84 176
q0 65 -43 90.5t-170 54.5q-143 34 -204.5 78t-61.5 139q0 155 112 255.5t285 100.5q68 0 151 -9t132 -18zM578 1231l-13 94l447 193l14 -109z" />
    <glyph glyph-name="Scircumflex" unicode="&#x15c;" horiz-adv-x="1024" 
d="M1210 1391l-22 -97q-214 37 -357 37q-170 0 -267 -83t-97 -244q0 -31 6 -55t22 -44t34 -34t53 -30t67 -27.5t88 -29.5q82 -28 132 -52t88.5 -60t54.5 -84t16 -117q0 -228 -136.5 -359.5t-367.5 -131.5q-84 0 -185.5 12t-161.5 24l-60 11l22 102q239 -37 393 -37
q173 0 270 98.5t97 272.5q0 92 -47 132.5t-190 86.5q-87 28 -139.5 51t-98.5 59t-66 85t-20 118q0 213 137 331t367 118q79 0 171 -13t145 -27zM590 1632l330 275h61l199 -275h-115l-125 176l-215 -176h-135z" />
    <glyph glyph-name="scircumflex" unicode="&#x15d;" horiz-adv-x="876" 
d="M989 1006l-26 -99q-191 29 -322 29q-115 0 -186.5 -65.5t-71.5 -157.5q0 -55 39.5 -81.5t161.5 -56.5q63 -15 100 -26t76 -29t59 -40t32.5 -55t12.5 -77q0 -178 -123.5 -273t-316.5 -95q-67 0 -146.5 10.5t-125.5 21.5l-46 11l23 98q188 -33 309 -33q133 0 217 60t84 176
q0 65 -43 90.5t-170 54.5q-143 34 -204.5 78t-61.5 139q0 155 112 255.5t285 100.5q68 0 151 -9t132 -18zM453 1208l309 297h63l179 -297h-115l-111 189l-198 -189h-127z" />
    <glyph glyph-name="Scedilla" unicode="&#x15e;" horiz-adv-x="1024" 
d="M1210 1391l-22 -97q-214 37 -357 37q-170 0 -267 -83t-97 -244q0 -31 6 -55t22 -44t34 -34t53 -30t67 -27.5t88 -29.5q82 -28 132 -52t88.5 -60t54.5 -84t16 -117q0 -223 -130.5 -354t-354.5 -137l-21 -78h10q90 0 136.5 -36.5t27.5 -119.5q-20 -88 -72 -129t-141 -41
q-37 0 -77 3t-61 6l-21 3l22 90q80 -8 137 -8q87 0 107 80q17 74 -70 74h-90l37 158q-76 3 -163.5 14t-137.5 21l-49 10l22 102q239 -37 393 -37q173 0 270 98.5t97 272.5q0 92 -47 132.5t-190 86.5q-87 28 -139.5 51t-98.5 59t-66 85t-20 118q0 213 137 331t367 118
q79 0 171 -13t145 -27z" />
    <glyph glyph-name="scedilla" unicode="&#x15f;" horiz-adv-x="876" 
d="M600 -254q-20 -88 -72 -129t-141 -41q-37 0 -77 3t-62 6l-21 3l23 90q80 -8 137 -8q87 0 107 80q17 74 -70 74h-90l37 158q-59 3 -126 13t-104 19l-37 9l23 98q188 -33 309 -33q133 0 217 60t84 176q0 65 -43 90.5t-170 54.5q-143 34 -204.5 78t-61.5 139
q0 155 112 255.5t285 100.5q68 0 151 -9t132 -18l49 -9l-26 -99q-191 29 -322 29q-115 0 -186.5 -65.5t-71.5 -157.5q0 -55 39.5 -81.5t161.5 -56.5q63 -15 100 -26t76 -29t59 -40t32.5 -55t12.5 -77q0 -172 -116.5 -267t-299.5 -101l-20 -78h10q90 0 136.5 -36.5
t27.5 -119.5z" />
    <glyph glyph-name="Scaron" unicode="&#x160;" horiz-adv-x="1024" 
d="M1262 1905l-320 -275h-74l-200 275h120l134 -183l211 183h129zM1210 1391l-22 -97q-214 37 -357 37q-170 0 -267 -83t-97 -244q0 -31 6 -55t22 -44t34 -34t53 -30t67 -27.5t88 -29.5q82 -28 132 -52t88.5 -60t54.5 -84t16 -117q0 -228 -136.5 -359.5t-367.5 -131.5
q-84 0 -185.5 12t-161.5 24l-60 11l22 102q239 -37 393 -37q173 0 270 98.5t97 272.5q0 92 -47 132.5t-190 86.5q-87 28 -139.5 51t-98.5 59t-66 85t-20 118q0 213 137 331t367 118q79 0 171 -13t145 -27z" />
    <glyph glyph-name="scaron" unicode="&#x161;" horiz-adv-x="876" 
d="M989 1006l-26 -99q-191 29 -322 29q-115 0 -186.5 -65.5t-71.5 -157.5q0 -55 39.5 -81.5t161.5 -56.5q63 -15 100 -26t76 -29t59 -40t32.5 -55t12.5 -77q0 -178 -123.5 -273t-316.5 -95q-67 0 -146.5 10.5t-125.5 21.5l-46 11l23 98q188 -33 309 -33q133 0 217 60t84 176
q0 65 -43 90.5t-170 54.5q-143 34 -204.5 78t-61.5 139q0 155 112 255.5t285 100.5q68 0 151 -9t132 -18zM758 1208h-66l-174 297h113l117 -194l202 194h127z" />
    <glyph glyph-name="Tcedilla" unicode="&#x162;" horiz-adv-x="966" 
d="M668 -254q-20 -88 -72 -129t-141 -41q-37 0 -77 3t-62 6l-21 3l22 90q81 -8 138 -8q86 0 106 80q17 74 -69 74h-91l43 176h-26l301 1311h-397l26 112h922l-27 -112h-397l-303 -1311h-25l-24 -98h10q90 0 136.5 -36.5t27.5 -119.5z" />
    <glyph glyph-name="tcedilla" unicode="&#x163;" horiz-adv-x="645" 
d="M594 -254q-20 -88 -72 -129t-141 -41q-37 0 -77 3t-62 6l-21 3l23 90q80 -8 137 -8q86 0 106 80q17 74 -69 74h-90l39 166q-62 15 -95.5 61t-33.5 117q0 73 34 213l125 534h-139l27 109h139l76 313h123l-78 -313h305l-27 -109h-303l-127 -540q-26 -113 -26 -182
q0 -105 112 -105q24 0 65 3t70 6l29 3l-8 -96q-107 -24 -193 -24h-2l-20 -78h10q90 0 136.5 -36.5t27.5 -119.5z" />
    <glyph glyph-name="Tcaron" unicode="&#x164;" horiz-adv-x="966" 
d="M1188 1896l-320 -274h-73l-201 274h121l133 -182l211 182h129zM322 1311l26 112h922l-27 -112h-397l-303 -1311h-125l301 1311h-397z" />
    <glyph glyph-name="tcaron" unicode="&#x165;" horiz-adv-x="792" 
d="M1133 1423l-109 -467h-113l109 467h113zM823 915h-303l-127 -540q-26 -113 -26 -182q0 -105 112 -105q24 0 65 3t70 6l29 3l-8 -96q-107 -24 -193 -24q-97 0 -150.5 49t-53.5 139q0 73 34 213l125 534h-139l27 109h139l76 313h123l-78 -313h305z" />
    <glyph glyph-name="Tbar" unicode="&#x166;" horiz-adv-x="976" 
d="M326 1311l26 112h922l-27 -112h-397l-131 -566h332l-31 -116h-328l-145 -629h-125l143 629h-323l26 116h324l131 566h-397z" />
    <glyph glyph-name="tbar" unicode="&#x167;" horiz-adv-x="655" 
d="M829 915h-303l-61 -258h295l-27 -108h-293l-41 -174q-26 -113 -26 -182q0 -105 112 -105q24 0 65 3t70 6l29 3l-8 -96q-106 -24 -192 -24q-97 0 -151 49t-54 139q0 69 35 213l38 168h-112l24 108h113l61 258h-139l27 109h139l76 313h123l-78 -313h305z" />
    <glyph glyph-name="Utilde" unicode="&#x168;" horiz-adv-x="1214" 
d="M1323 1862l6 -86q-14 -14 -37.5 -34t-76 -53.5t-82.5 -33.5q-37 0 -95 30.5t-111 60.5t-79 30q-19 0 -64 -26t-80 -52l-36 -27l-4 90q15 14 39.5 34t80.5 53.5t88 33.5q41 0 99.5 -30t110 -59.5t75.5 -29.5q17 0 58.5 24.5t74.5 49.5zM608 1423l-227 -987
q-21 -86 -21 -151q0 -191 285 -191q171 0 259 79.5t126 248.5l232 1001h127l-232 -1003q-53 -225 -173.5 -332.5t-346.5 -107.5q-188 0 -294.5 72t-106.5 218q0 93 22 176l225 977h125z" />
    <glyph glyph-name="utilde" unicode="&#x169;" horiz-adv-x="1011" 
d="M1100 1462l8 -94q-12 -11 -32.5 -27.5t-68.5 -43.5t-79 -27q-40 0 -137.5 50t-124.5 50q-19 0 -59 -22.5t-71 -45.5l-30 -22l-4 96q14 12 36 29t73.5 45.5t82.5 28.5q45 0 139 -50.5t117 -50.5q17 0 54.5 21t66.5 42zM985 1024h123l-238 -1024h-118l43 199
q-7 -9 -19.5 -23.5t-51 -52.5t-78 -67t-95 -52.5t-107.5 -23.5q-115 0 -177 67t-62 182q0 93 41 271l123 524h120l-120 -516q-39 -171 -39 -256q0 -77 39.5 -119.5t113.5 -42.5q43 0 94.5 26t94 63.5t78.5 75t56 63.5l21 26z" />
    <glyph glyph-name="Umacron" unicode="&#x16a;" horiz-adv-x="1214" 
d="M608 1423l-227 -987q-21 -86 -21 -151q0 -191 285 -191q171 0 259 79.5t126 248.5l232 1001h127l-232 -1003q-53 -225 -173.5 -332.5t-346.5 -107.5q-188 0 -294.5 72t-106.5 218q0 93 22 176l225 977h125zM692 1696l21 94h585l-24 -94h-582z" />
    <glyph glyph-name="umacron" unicode="&#x16b;" horiz-adv-x="1011" 
d="M985 1024h123l-238 -1024h-118l43 199q-7 -9 -19.5 -23.5t-51 -52.5t-78 -67t-95 -52.5t-107.5 -23.5q-115 0 -177 67t-62 182q0 93 41 271l123 524h120l-120 -516q-39 -171 -39 -256q0 -77 39.5 -119.5t113.5 -42.5q43 0 94.5 26t94 63.5t78.5 75t56 63.5l21 26z
M508 1315l22 96h547l-24 -96h-545z" />
    <glyph glyph-name="Ubreve" unicode="&#x16c;" horiz-adv-x="1214" 
d="M739 1888h109q-14 -85 20 -119t111 -34q70 0 128.5 42.5t76.5 110.5h108q-34 -120 -121.5 -186t-214.5 -66q-126 0 -183 63.5t-34 188.5zM608 1423l-227 -987q-21 -86 -21 -151q0 -191 285 -191q171 0 259 79.5t126 248.5l232 1001h127l-232 -1003
q-53 -225 -173.5 -332.5t-346.5 -107.5q-188 0 -294.5 72t-106.5 218q0 93 22 176l225 977h125z" />
    <glyph glyph-name="ubreve" unicode="&#x16d;" horiz-adv-x="1011" 
d="M985 1024h123l-238 -1024h-118l43 199q-7 -9 -19.5 -23.5t-51 -52.5t-78 -67t-95 -52.5t-107.5 -23.5q-115 0 -177 67t-62 182q0 93 41 271l123 524h120l-120 -516q-39 -171 -39 -256q0 -77 39.5 -119.5t113.5 -42.5q43 0 94.5 26t94 63.5t78.5 75t56 63.5l21 26z
M549 1489h104q-20 -77 14.5 -124.5t120.5 -47.5q88 0 142 46.5t76 125.5h106q-78 -272 -354 -272q-126 0 -181 75.5t-28 196.5z" />
    <glyph glyph-name="Uring" unicode="&#x16e;" horiz-adv-x="1214" 
d="M1208 1724q-24 -92 -87 -143t-160 -51q-94 0 -136 51.5t-16 142.5q26 97 91 147t157 50q91 0 133 -49t18 -148zM893 1724q-11 -47 10.5 -76.5t77.5 -29.5t93.5 27.5t49.5 78.5q10 51 -14.5 80t-75.5 29q-54 0 -91.5 -28.5t-49.5 -80.5zM608 1423l-227 -987
q-21 -86 -21 -151q0 -191 285 -191q171 0 259 79.5t126 248.5l232 1001h127l-232 -1003q-53 -225 -173.5 -332.5t-346.5 -107.5q-188 0 -294.5 72t-106.5 218q0 93 22 176l225 977h125z" />
    <glyph glyph-name="uring" unicode="&#x16f;" horiz-adv-x="1011" 
d="M606 1319q16 80 79.5 137t152.5 57q72 0 107.5 -43t29.5 -118q-6 -99 -73.5 -163.5t-160.5 -64.5q-87 0 -119 53t-16 142zM686 1319q-10 -42 12 -76.5t66 -34.5q45 0 81.5 32t47.5 79q11 41 -11 73.5t-65 32.5q-45 0 -82.5 -30.5t-48.5 -75.5zM985 1024h123l-238 -1024
h-118l43 199q-7 -9 -19.5 -23.5t-51 -52.5t-78 -67t-95 -52.5t-107.5 -23.5q-115 0 -177 67t-62 182q0 93 41 271l123 524h120l-120 -516q-39 -171 -39 -256q0 -77 39.5 -119.5t113.5 -42.5q43 0 94.5 26t94 63.5t78.5 75t56 63.5l21 26z" />
    <glyph glyph-name="Uhungarumlaut" unicode="&#x170;" horiz-adv-x="1214" 
d="M1090 1554l-58 58l363 233l67 -59zM711 1556l-62 56l369 235l63 -61zM608 1423l-227 -987q-21 -86 -21 -151q0 -191 285 -191q171 0 259 79.5t126 248.5l232 1001h127l-232 -1003q-53 -225 -173.5 -332.5t-346.5 -107.5q-188 0 -294.5 72t-106.5 218q0 93 22 176l225 977
h125z" />
    <glyph glyph-name="uhungarumlaut" unicode="&#x171;" horiz-adv-x="1011" 
d="M944 1200l-57 72l352 258l66 -74zM578 1200l-58 72l352 258l64 -74zM985 1024h123l-238 -1024h-118l43 199q-7 -9 -19.5 -23.5t-51 -52.5t-78 -67t-95 -52.5t-107.5 -23.5q-115 0 -177 67t-62 182q0 93 41 271l123 524h120l-120 -516q-39 -171 -39 -256
q0 -77 39.5 -119.5t113.5 -42.5q43 0 94.5 26t94 63.5t78.5 75t56 63.5l21 26z" />
    <glyph glyph-name="Uogonek" unicode="&#x172;" horiz-adv-x="1216" 
d="M608 1423l-227 -987q-21 -86 -21 -151q0 -191 285 -191q171 0 259 79.5t126 248.5l232 1001h127l-232 -1003q-45 -194 -140 -299t-261 -131q-63 -53 -120.5 -126t-57.5 -122q0 -45 57 -45q15 0 41 3t44 6l19 3l-12 -104q-86 -19 -145 -19q-68 0 -104 32.5t-36 90.5
q0 60 53.5 133t125.5 138q-181 3 -283 75t-102 215q0 93 22 176l225 977h125z" />
    <glyph glyph-name="uogonek" unicode="&#x173;" horiz-adv-x="1011" 
d="M985 1024h123l-238 -1024q-65 -48 -132.5 -126.5t-67.5 -131.5q0 -45 57 -45q15 0 41 3t44 6l19 3l-12 -104q-86 -19 -145 -19q-68 0 -103.5 32.5t-35.5 90.5q0 70 71 156.5t148 148.5l41 185q-7 -9 -19.5 -23.5t-51 -52.5t-78 -67t-95 -52.5t-107.5 -23.5
q-115 0 -177 67t-62 182q0 93 41 271l123 524h120l-120 -516q-39 -171 -39 -256q0 -77 39.5 -119.5t113.5 -42.5q43 0 94.5 26t94 63.5t78.5 75t56 63.5l21 26z" />
    <glyph glyph-name="Wcircumflex" unicode="&#x174;" horiz-adv-x="1679" 
d="M897 1624l330 274h61l199 -274h-115l-125 176l-215 -176h-135zM389 1423h125l-59 -1308h61l574 1288h135l-31 -1288h57l557 1308h127l-612 -1423h-240l33 1206l-534 -1206h-246z" />
    <glyph glyph-name="wcircumflex" unicode="&#x175;" horiz-adv-x="1480" 
d="M299 1024h123l-6 -918h35l444 898h147l21 -898h37l426 918h125l-475 -1024h-228l-16 846l-414 -846h-223zM713 1208l309 297h63l179 -297h-115l-111 189l-198 -189h-127z" />
    <glyph glyph-name="Ycircumflex" unicode="&#x176;" horiz-adv-x="1003" 
d="M569 1624l330 274h62l198 -274h-115l-124 176l-215 -176h-136zM1300 1423l-604 -813l-143 -610h-121l143 623l-221 800h127l183 -690l501 690h135z" />
    <glyph glyph-name="ycircumflex" unicode="&#x177;" horiz-adv-x="925" 
d="M291 1024h121l28 -918h70l469 918h129l-766 -1483h-125l242 459h-133zM459 1208l309 297h63l179 -297h-115l-111 189l-198 -189h-127z" />
    <glyph glyph-name="Ydieresis" unicode="&#x178;" horiz-adv-x="1003" 
d="M623 1677l36 170h103l-41 -170h-98zM999 1677l41 170h101l-41 -170h-101zM1300 1423l-604 -813l-143 -610h-121l143 623l-221 800h127l183 -690l501 690h135z" />
    <glyph glyph-name="Zacute" unicode="&#x179;" horiz-adv-x="1015" 
d="M696 1618l-16 92l448 195l19 -107zM385 1311l27 112h852l-45 -190l-967 -1071l-12 -49h716l-26 -113h-852l43 184l964 1069l15 58h-715z" />
    <glyph glyph-name="zacute" unicode="&#x17a;" horiz-adv-x="856" 
d="M317 1024l-28 -109h551l-742 -809l-18 -106h698l25 106h-555l743 812l23 106h-697zM539 1231l-13 94l447 193l14 -109z" />
    <glyph glyph-name="Zdotaccent" unicode="&#x17b;" horiz-adv-x="1015" 
d="M819 1729l35 159h102l-34 -159h-103zM385 1311l27 112h852l-45 -190l-967 -1071l-12 -49h716l-26 -113h-852l43 184l964 1069l15 58h-715z" />
    <glyph glyph-name="zdotaccent" unicode="&#x17c;" horiz-adv-x="856" 
d="M317 1024l-28 -109h551l-742 -809l-18 -106h698l25 106h-555l743 812l23 106h-697zM641 1249l39 160h104l-36 -160h-107z" />
    <glyph glyph-name="Zcaron" unicode="&#x17d;" horiz-adv-x="1015" 
d="M1229 1894l-320 -274h-73l-201 274h121l133 -182l211 182h129zM385 1311l27 112h852l-45 -190l-967 -1071l-12 -49h716l-26 -113h-852l43 184l964 1069l15 58h-715z" />
    <glyph glyph-name="zcaron" unicode="&#x17e;" horiz-adv-x="856" 
d="M717 1208h-66l-174 297h113l117 -194l202 194h127zM289 915l28 109h697l-23 -106l-743 -812h555l-25 -106h-698l18 106l742 809h-551z" />
    <glyph glyph-name="florin" unicode="&#x192;" 
d="M745 727l-206 -866q-46 -195 -130.5 -277t-218.5 -82q-29 0 -62.5 4t-51.5 8l-19 3l27 108q72 -6 125 -6q76 0 126.5 57.5t84.5 194.5l205 856h-219l24 119h221l29 121q42 164 91.5 257.5t112.5 132t156 38.5q56 0 131.5 -7.5t92.5 -11.5l-29 -110q-146 8 -203 8
q-95 0 -144 -76.5t-95 -263.5l-21 -88h334l-29 -119h-332z" />
    <glyph glyph-name="Aringacute" unicode="&#x1fa;" horiz-adv-x="1136" 
d="M55 0l703 1374q-50 53 -23 152q26 96 90.5 146t157.5 50q91 0 133.5 -48.5t18.5 -147.5q-24 -96 -95 -148l47 -1378h-124l-17 391h-561l-203 -391h-127zM854 1311l-414 -809h506l-26 809h-66zM809 1804l-12 94l446 193l14 -109zM819 1526q-9 -38 3.5 -66t47.5 -37h78
q81 18 103 103q10 51 -14.5 79.5t-75.5 28.5q-55 0 -92.5 -28t-49.5 -80z" />
    <glyph glyph-name="aringacute" unicode="&#x1fb;" horiz-adv-x="1009" 
d="M696 1579l-14 104l446 193l17 -119zM442 -20q-129 0 -192.5 75t-63.5 213q0 101 20.5 207.5t63.5 208.5t102.5 182t144.5 129t183 49q56 0 155.5 -12t170.5 -24l72 -13l-156 -665q-14 -57 -28 -139t-22 -135l-7 -54l-119 -4q31 190 39 233q-7 -10 -20.5 -27t-54.5 -60.5
t-82 -76.5t-98 -60t-108 -27zM702 936q-74 0 -138.5 -43.5t-109.5 -113.5t-77.5 -158.5t-48 -179t-15.5 -173.5q0 -90 37.5 -135t126.5 -45q39 0 90 30t96 72t83.5 84.5t61.5 72.5l23 30l125 528q-148 31 -254 31zM627 1319q16 80 79 137t152 57q72 0 107.5 -43t29.5 -118
q-6 -99 -73 -163.5t-160 -64.5q-87 0 -119 53t-16 142zM707 1319q-10 -42 11.5 -76.5t65.5 -34.5q45 0 81.5 32t47.5 79q11 41 -10.5 73.5t-64.5 32.5q-45 0 -82.5 -30.5t-48.5 -75.5z" />
    <glyph glyph-name="AEacute" unicode="&#x1fc;" horiz-adv-x="1609" 
d="M731 0l90 391h-442l-203 -391h-121l727 1427h1071l-24 -116l-668 4l-129 -533h553l-24 -114h-553l-131 -551h665l-24 -117h-787zM844 1311l-410 -805h414l194 805h-198zM1147 1618l-17 92l449 195l18 -107z" />
    <glyph glyph-name="aeacute" unicode="&#x1fd;" horiz-adv-x="1550" 
d="M1092 96q62 0 151 5t147 9l58 5l-23 -107q-212 -28 -366 -28q-193 0 -256 114q-101 -42 -237.5 -78t-227.5 -36q-65 0 -111.5 26t-67 69.5t-27 99.5t8.5 116q27 141 119.5 208t247.5 91q163 24 317 33q101 299 -104 299q-63 0 -154.5 -6t-152.5 -12l-60 -5l19 117
q229 26 379 26q92 0 152.5 -42.5t70.5 -122.5q126 165 354 165q285 0 291 -276q0 -104 -29 -211l-26 -98l-643 4q-27 -117 -25 -180q2 -92 47 -138.5t148 -46.5zM375 94q75 0 189 28t210 62q-4 20 -6 42t-2.5 39t2 42.5t4 39.5t7 43.5t7.5 39.5t9.5 44t9.5 42
q-200 -20 -311 -35q-91 -14 -147 -58.5t-77 -129.5q-9 -34 -9 -67.5t9.5 -64t36.5 -49t68 -18.5zM944 565l529 -4q29 118 26 187q-1 94 -49.5 138t-146.5 44q-136 0 -225 -87.5t-134 -277.5zM903 1231l-12 94l446 193l15 -109z" />
    <glyph glyph-name="Oslashacute" unicode="&#x1fe;" horiz-adv-x="1296" 
d="M225 -231l-75 45l184 272q-92 99 -92 317q0 260 85 504t240 387q166 150 375 150q171 0 275 -64l167 246l84 -37l-182 -266q94 -104 94 -303q0 -276 -88 -525t-254 -386q-154 -129 -364 -129q-172 0 -268 51zM412 201l354 520l381 557q-73 53 -213 53q-131 0 -236 -82
q-104 -81 -180.5 -230.5t-111.5 -307t-35 -303.5q0 -138 41 -207zM686 92q143 0 252 86q101 80 174 225.5t105 301.5t32 309q0 120 -41 194l-362 -532l-369 -541q68 -43 209 -43zM877 1604l-19 106l449 195l20 -119z" />
    <glyph glyph-name="oslashacute" unicode="&#x1ff;" horiz-adv-x="1011" 
d="M707 1042q107 0 182 -34l141 229l78 -33l-152 -239q95 -89 95 -260q0 -196 -62.5 -360t-183.5 -264.5t-277 -100.5q-104 0 -172 26l-145 -235l-78 32l154 244q-94 79 -94 256q0 198 65 366.5t183.5 270.5t265.5 102zM356 156l236 372l235 379q-53 29 -120 29
q-113 0 -204 -89.5t-139.5 -233.5t-48.5 -310q0 -95 41 -147zM528 88q117 0 209.5 86t140.5 226.5t48 306.5q0 91 -39 147l-230 -362l-237 -383q44 -21 108 -21zM610 1231l-12 94l446 193l15 -109z" />
    <glyph glyph-name="Scommaaccent" unicode="&#x218;" horiz-adv-x="1024" 
d="M449 -150l-175 -415h99l190 415h-114zM1210 1391l-22 -97q-214 37 -357 37q-170 0 -267 -83t-97 -244q0 -31 6 -55t22 -44t34 -34t53 -30t67 -27.5t88 -29.5q82 -28 132 -52t88.5 -60t54.5 -84t16 -117q0 -228 -136.5 -359.5t-367.5 -131.5q-84 0 -185.5 12t-161.5 24
l-60 11l22 102q239 -37 393 -37q173 0 270 98.5t97 272.5q0 92 -47 132.5t-190 86.5q-87 28 -139.5 51t-98.5 59t-66 85t-20 118q0 213 137 331t367 118q79 0 171 -13t145 -27z" />
    <glyph glyph-name="scommaaccent" unicode="&#x219;" horiz-adv-x="874" 
d="M987 1006l-26 -99q-191 29 -322 29q-115 0 -186.5 -65.5t-71.5 -157.5q0 -55 39.5 -81.5t161.5 -56.5q63 -15 100 -26t76 -29t59 -40t32.5 -55t12.5 -77q0 -178 -123.5 -273t-316.5 -95q-67 0 -146.5 10.5t-125.5 21.5l-46 11l23 98q188 -33 309 -33q133 0 217 60t84 176
q0 65 -43 90.5t-170 54.5q-143 34 -204.5 78t-61.5 139q0 155 112 255.5t285 100.5q68 0 151 -9t132 -18zM360 -150l-174 -415h99l190 415h-115z" />
    <glyph glyph-name="Tcommaaccent" unicode="&#x21a;" horiz-adv-x="966" 
d="M397 -150l-174 -415h99l190 415h-115zM322 1311l26 112h922l-27 -112h-397l-303 -1311h-125l301 1311h-397z" />
    <glyph glyph-name="tcommaaccent" unicode="&#x21b;" horiz-adv-x="645" 
d="M823 915h-303l-127 -540q-26 -113 -26 -182q0 -105 112 -105q24 0 65 3t70 6l29 3l-8 -96q-107 -24 -193 -24q-97 0 -150.5 49t-53.5 139q0 73 34 213l125 534h-139l27 109h139l76 313h123l-78 -313h305zM303 -150l-174 -415h98l191 415h-115z" />
    <glyph glyph-name="circumflex" unicode="&#x2c6;" horiz-adv-x="1619" 
d="M803 1208l309 297h64l178 -297h-115l-111 189l-198 -189h-127z" />
    <glyph glyph-name="caron" unicode="&#x2c7;" horiz-adv-x="1619" 
d="M1108 1208h-66l-174 297h113l117 -194l202 194h127z" />
    <glyph glyph-name="breve" unicode="&#x2d8;" horiz-adv-x="886" 
d="M500 1489h104q-20 -77 14.5 -124.5t120.5 -47.5q88 0 141.5 46.5t75.5 125.5h107q-78 -272 -354 -272q-126 0 -181 75.5t-28 196.5z" />
    <glyph glyph-name="dotaccent" unicode="&#x2d9;" horiz-adv-x="444" 
d="M461 1249l39 160h104l-37 -160h-106z" />
    <glyph glyph-name="ring" unicode="&#x2da;" horiz-adv-x="1619" 
d="M645 1319q16 80 79.5 137t152.5 57q72 0 107.5 -43t29.5 -118q-6 -99 -73.5 -163.5t-160.5 -64.5q-87 0 -119 53t-16 142zM725 1319q-10 -42 12 -76.5t66 -34.5q45 0 81.5 32t47.5 79q11 41 -11 73.5t-65 32.5q-45 0 -82.5 -30.5t-48.5 -75.5z" />
    <glyph glyph-name="ogonek" unicode="&#x2db;" horiz-adv-x="862" 
d="M578 -291l-13 -104q-86 -19 -145 -19q-68 0 -103.5 32.5t-35.5 90.5q0 73 77 165t152 149l106 -17q-62 -48 -131 -129.5t-69 -134.5q0 -45 57 -45q15 0 41 3t45 6z" />
    <glyph glyph-name="tilde" unicode="&#x2dc;" horiz-adv-x="864" 
d="M1059 1462l8 -94q-12 -11 -32.5 -27.5t-68.5 -43.5t-79 -27q-40 0 -137.5 50t-124.5 50q-19 0 -59 -22.5t-70 -45.5l-31 -22l-4 96q14 12 36 29t73.5 45.5t82.5 28.5q45 0 139 -50.5t117 -50.5q17 0 54.5 21t66.5 42z" />
    <glyph glyph-name="hungarumlaut" unicode="&#x2dd;" horiz-adv-x="1351" 
d="M1004 1200l-58 72l352 258l66 -74zM637 1200l-57 72l352 258l63 -74z" />
    <glyph glyph-name="pi" unicode="&#x3c0;" 
d="M887 315v600h-359l-57 -915h-125l64 915q-67 -1 -125 -7.5t-83 -12.5l-24 -6v106q119 29 287 29h473q70 0 140 8t104 16l35 7v-107q-59 -24 -209 -28v-605q0 -130 38 -171.5t150 -41.5v-108q-77 0 -127.5 9t-88 29t-57 58t-28 91t-8.5 134z" />
    <glyph glyph-name="Wgrave" unicode="&#x1e80;" horiz-adv-x="1679" 
d="M1036 1894l359 -194l-54 -88l-364 180zM389 1423h125l-59 -1308h61l574 1288h135l-31 -1288h57l557 1308h127l-612 -1423h-240l33 1206l-534 -1206h-246z" />
    <glyph glyph-name="wgrave" unicode="&#x1e81;" horiz-adv-x="1480" 
d="M780 1503l361 -192l-58 -84l-362 180zM299 1024h123l-6 -918h35l444 898h147l21 -898h37l426 918h125l-475 -1024h-228l-16 846l-414 -846h-223z" />
    <glyph glyph-name="Wacute" unicode="&#x1e82;" horiz-adv-x="1679" 
d="M1034 1618l-16 92l448 195l19 -107zM389 1423h125l-59 -1308h61l574 1288h135l-31 -1288h57l557 1308h127l-612 -1423h-240l33 1206l-534 -1206h-246z" />
    <glyph glyph-name="wacute" unicode="&#x1e83;" horiz-adv-x="1480" 
d="M299 1024h123l-6 -918h35l444 898h147l21 -898h37l426 918h125l-475 -1024h-228l-16 846l-414 -846h-223zM834 1231l-13 94l447 193l14 -109z" />
    <glyph glyph-name="Wdieresis" unicode="&#x1e84;" horiz-adv-x="1679" 
d="M967 1679l37 170h102l-41 -170h-98zM1343 1679l41 170h101l-41 -170h-101zM389 1423h125l-59 -1308h61l574 1288h135l-31 -1288h57l557 1308h127l-612 -1423h-240l33 1206l-534 -1206h-246z" />
    <glyph glyph-name="wdieresis" unicode="&#x1e85;" horiz-adv-x="1480" 
d="M299 1024h123l-6 -918h35l444 898h147l21 -898h37l426 918h125l-475 -1024h-228l-16 846l-414 -846h-223zM772 1280l39 168h100l-39 -168h-100zM1139 1280l37 168h100l-39 -168h-98z" />
    <glyph glyph-name="uni1EAB" unicode="&#x1eab;" horiz-adv-x="1009" 
d="M442 -20q-129 0 -192.5 75t-63.5 213q0 101 20.5 207.5t63.5 208.5t102.5 182t144.5 129t183 49q56 0 155.5 -12t170.5 -24l72 -13l-156 -665q-14 -57 -28 -139t-22 -135l-7 -54l-119 -4q31 190 39 233q-7 -10 -20.5 -27t-54.5 -60.5t-82 -76.5t-98 -60t-108 -27z
M702 936q-74 0 -138.5 -43.5t-109.5 -113.5t-77.5 -158.5t-48 -179t-15.5 -173.5q0 -90 37.5 -135t126.5 -45q39 0 90 30t96 72t83.5 84.5t61.5 72.5l23 30l125 528q-148 31 -254 31zM1200 1698l8 -94q-12 -11 -32.5 -27.5t-68.5 -44t-79 -27.5q-40 0 -137.5 50.5
t-124.5 50.5q-19 0 -59 -22.5t-71 -45.5l-30 -22l-4 96q14 11 36 28t74 45.5t83 28.5q45 0 139 -50t117 -50q17 0 54.5 21t66.5 42zM524 1147l310 297h63l178 -297h-114l-111 188l-199 -188h-127z" />
    <glyph glyph-name="uni1EB0" unicode="&#x1eb0;" horiz-adv-x="1136" 
d="M903 2195l361 -192l-58 -84l-362 180zM55 0l727 1423h258l47 -1423h-124l-17 391h-561l-203 -391h-127zM854 1311l-414 -809h506l-26 809h-66zM721 1806h108q-14 -85 20.5 -119t111.5 -34q70 0 128 42.5t76 110.5h109q-34 -120 -121.5 -186t-214.5 -66q-126 0 -183 63.5
t-34 188.5z" />
    <glyph glyph-name="uni1EC5" unicode="&#x1ec5;" horiz-adv-x="937" 
d="M1163 1698l8 -94q-12 -11 -32.5 -27.5t-68.5 -44t-79 -27.5q-40 0 -137.5 50.5t-124.5 50.5q-19 0 -59 -22.5t-70 -45.5l-31 -22l-4 96q14 11 36 28t74 45.5t83 28.5q45 0 139 -50t117 -50q17 0 54.5 21t65.5 42zM524 90q68 0 152 13t134 25l50 13l-8 -100
q-20 -7 -54.5 -17t-129.5 -27t-176 -17q-143 0 -222.5 77t-79.5 226q0 107 20 212.5t64.5 205t107.5 175t156 121t203 45.5q137 0 213 -56.5t76 -176.5q0 -180 -139 -253t-436 -73h-115q-25 -105 -25 -188q0 -98 56.5 -151.5t152.5 -53.5zM358 584h121q226 0 327 48t101 175
q0 70 -43 100.5t-129 30.5q-270 0 -377 -354zM494 1147l309 297h63l178 -297h-114l-111 188l-198 -188h-127z" />
    <glyph glyph-name="uni1ED7" unicode="&#x1ed7;" horiz-adv-x="1011" 
d="M707 1042q170 0 257 -84.5t87 -252.5q0 -196 -62.5 -360t-183.5 -264.5t-277 -100.5q-167 0 -251 78.5t-84 244.5q0 198 65 366.5t183.5 270.5t265.5 102zM528 88q117 0 209.5 86t140.5 226.5t48 306.5q0 105 -55 167t-164 62q-113 0 -204 -89.5t-139.5 -233.5
t-48.5 -310q0 -215 213 -215zM1178 1698l8 -94q-12 -11 -32.5 -27.5t-68.5 -44t-79 -27.5q-40 0 -138 50.5t-125 50.5q-19 0 -59 -22.5t-70 -45.5l-30 -22l-4 96q14 11 36 28t73.5 45.5t82.5 28.5q45 0 139 -50t117 -50q17 0 54.5 21t66.5 42zM492 1147l309 297h63l178 -297
h-114l-111 188l-199 -188h-126z" />
    <glyph glyph-name="Ygrave" unicode="&#x1ef2;" horiz-adv-x="1003" 
d="M700 1894l359 -194l-53 -88l-365 180zM1300 1423l-604 -813l-143 -610h-121l143 623l-221 800h127l183 -690l501 690h135z" />
    <glyph glyph-name="ygrave" unicode="&#x1ef3;" horiz-adv-x="925" 
d="M514 1503l360 -192l-57 -84l-362 180zM291 1024h121l28 -918h70l469 918h129l-766 -1483h-125l242 459h-133z" />
    <glyph glyph-name="uni1EF8" unicode="&#x1ef8;" horiz-adv-x="1003" 
d="M1196 1868l8 -94q-12 -11 -32.5 -27.5t-68.5 -44t-79 -27.5q-40 0 -137.5 50.5t-124.5 50.5q-19 0 -59 -22.5t-71 -45.5l-30 -22l-4 96q14 11 36 28t74 45.5t83 28.5q45 0 139 -50t117 -50q17 0 54.5 21t66.5 42zM1300 1423l-604 -813l-143 -610h-121l143 623l-221 800
h127l183 -690l501 690h135z" />
    <glyph glyph-name="uni1EF9" unicode="&#x1ef9;" horiz-adv-x="925" 
d="M1073 1462l8 -94q-12 -11 -32.5 -27.5t-68.5 -43.5t-79 -27q-40 0 -137.5 50t-124.5 50q-19 0 -59 -22.5t-70 -45.5l-31 -22l-4 96q14 12 36 29t74 45.5t83 28.5q45 0 139 -50.5t117 -50.5q17 0 54.5 21t65.5 42zM291 1024h121l28 -918h70l469 918h129l-766 -1483h-125
l242 459h-133z" />
    <glyph glyph-name="endash" unicode="&#x2013;" horiz-adv-x="1251" 
d="M242 604h1024v-110h-1024v110z" />
    <glyph glyph-name="emdash" unicode="&#x2014;" horiz-adv-x="2275" 
d="M242 604h2048v-110h-2048v110z" />
    <glyph glyph-name="quoteleft" unicode="&#x2018;" horiz-adv-x="372" 
d="M524 1421h94l-180 -440h-127z" />
    <glyph glyph-name="quoteright" unicode="&#x2019;" horiz-adv-x="372" 
d="M410 983h-95l181 440h127z" />
    <glyph glyph-name="quotesinglbase" unicode="&#x201a;" horiz-adv-x="364" 
d="M90 -260h-94l180 440h127z" />
    <glyph glyph-name="quotedblleft" unicode="&#x201c;" horiz-adv-x="679" 
d="M522 1423h94l-180 -440h-127zM831 1423h95l-181 -440h-127z" />
    <glyph glyph-name="quotedblright" unicode="&#x201d;" horiz-adv-x="679" 
d="M410 983h-95l181 440h127zM717 983h-94l180 440h127z" />
    <glyph glyph-name="quotedblbase" unicode="&#x201e;" horiz-adv-x="653" 
d="M498 180h94l-180 -440h-127zM186 180h95l-181 -440h-127z" />
    <glyph glyph-name="dagger" unicode="&#x2020;" horiz-adv-x="905" 
d="M264 891l29 129l334 -4l94 397h115l-91 -393h334l-28 -129l-338 4l-248 -1051h-113l244 1047h-332z" />
    <glyph glyph-name="daggerdbl" unicode="&#x2021;" horiz-adv-x="989" 
d="M397 -156l92 394h-335l28 124l336 -2l125 531h-332l29 129l334 -4l94 397h115l-92 -393h335l-30 -129l-336 4l-125 -533h336l-31 -124l-336 4l-92 -398h-115z" />
    <glyph glyph-name="bullet" unicode="&#x2022;" horiz-adv-x="1007" 
d="M367 219v590h512v-590h-512z" />
    <glyph glyph-name="ellipsis" unicode="&#x2026;" horiz-adv-x="1325" 
d="M117 0l47 205h125l-47 -205h-125zM604 0l47 205h125l-47 -205h-125zM1085 0l48 205h124l-47 -205h-125z" />
    <glyph glyph-name="perthousand" unicode="&#x2030;" horiz-adv-x="1662" 
d="M602 1346q63 0 79 -47t-9 -144q-26 -99 -65 -148t-101 -49q-61 0 -76.5 51t10.5 148q24 97 62 143t100 46zM326 10l739 1436l88 -25l-739 -1431zM336 1157q-36 -145 4 -217t143 -72q102 0 178.5 72t112.5 215t-4.5 212t-144.5 69q-219 0 -289 -279zM696 289
q36 142 110.5 210t178.5 68t145.5 -68.5t6.5 -211.5q-36 -143 -112.5 -215t-178.5 -72q-103 0 -144.5 72t-5.5 217zM801 289q-26 -98 -11 -148.5t76 -50.5q63 0 101.5 48.5t64.5 148.5q26 95 10 142.5t-79 47.5q-61 0 -98.5 -45.5t-63.5 -142.5zM1225 289q70 278 288 278
q104 0 145.5 -68.5t6.5 -211.5q-36 -143 -112.5 -215t-178.5 -72q-103 0 -144 72t-5 217zM1329 289q-26 -98 -11 -148.5t77 -50.5q63 0 101.5 48.5t64.5 148.5q25 95 9 142.5t-79 47.5q-62 0 -100 -46t-62 -142z" />
    <glyph glyph-name="guilsinglleft" unicode="&#x2039;" horiz-adv-x="536" 
d="M621 823l-39 -129l-279 -188l186 -209l-34 -115l-277 297l23 64z" />
    <glyph glyph-name="guilsinglright" unicode="&#x203a;" horiz-adv-x="536" 
d="M150 182l38 129l279 189l-186 209l34 114l277 -297l-23 -63z" />
    <glyph glyph-name="fraction" unicode="&#x2044;" horiz-adv-x="16" 
d="M-199 -49l-116 43l874 1413l115 -43z" />
    <glyph glyph-name="zerosuperior" unicode="&#x2070;" horiz-adv-x="573" 
d="M668 1636q56 0 94 -17t61.5 -56.5t22.5 -104.5t-23 -160q-55 -217 -151 -288q-68 -52 -172 -52q-76 0 -118.5 32t-55.5 108t20 202q54 213 154 287q59 49 168 49zM643 1536q-66 0 -108.5 -54t-75.5 -184q-25 -91 -21.5 -143.5t25 -73t63.5 -20.5q63 0 107 52.5t78 186.5
q31 128 15 182t-83 54z" />
    <glyph glyph-name="foursuperior" unicode="&#x2074;" horiz-adv-x="573" 
d="M571 979l25 104h-293l25 95l266 440h121l-266 -432h172l53 178h102l-45 -178h62l-25 -103h-61l-27 -104h-109z" />
    <glyph glyph-name="fivesuperior" unicode="&#x2075;" horiz-adv-x="573" 
d="M489 1618h373l-22 -100h-279l-55 -170q57 36 131 36q88 0 129 -48.5t16 -153.5q-31 -118 -99.5 -169.5t-172.5 -51.5q-43 0 -94.5 6.5t-81.5 12.5l-31 7l35 96q104 -22 188 -22q49 0 87 30.5t51 88.5q30 106 -68 106q-29 0 -61.5 -9t-50.5 -19l-17 -9l-86 11z" />
    <glyph glyph-name="sixsuperior" unicode="&#x2076;" horiz-adv-x="573" 
d="M868 1618l-28 -94q-92 14 -166 14q-69 0 -112.5 -41t-67.5 -133q87 33 139 33q105 0 144 -55t14 -154q-57 -230 -279 -230q-236 0 -152 336q46 184 127 263t211 79q34 0 76.5 -4.5t67.5 -9.5zM598 1300q-28 0 -60.5 -9.5t-51.5 -18t-19 -10.5q-50 -203 68 -203
q111 0 143 127q15 64 -2 89t-78 25z" />
    <glyph glyph-name="sevensuperior" unicode="&#x2077;" horiz-adv-x="573" 
d="M416 1511l26 107h414l-37 -145l-346 -512l-123 28l342 477l10 45h-286z" />
    <glyph glyph-name="eightsuperior" unicode="&#x2078;" horiz-adv-x="573" 
d="M670 1636q114 0 161 -43t25 -129q-28 -124 -137 -151q103 -32 72 -156q-29 -112 -101 -155.5t-190 -43.5q-111 0 -163.5 46t-27.5 145q19 72 57 109t95 57q-43 16 -60.5 51t-3.5 100q23 89 90 129.5t183 40.5zM524 1055q127 0 152 102q10 46 -6 69.5t-62 37.5h-61
q-55 -14 -83.5 -38.5t-39.5 -74.5q-12 -49 14.5 -72.5t85.5 -23.5zM645 1542q-116 0 -137 -84q-9 -42 5 -63.5t56 -36.5h62q53 15 77 36t33 62q11 44 -11 65t-85 21z" />
    <glyph glyph-name="ninesuperior" unicode="&#x2079;" horiz-adv-x="573" 
d="M303 981l31 92q86 -12 162 -12q75 0 119.5 41.5t68.5 128.5q-84 -29 -147 -29q-97 0 -137.5 57.5t-14.5 157.5q24 104 98.5 161.5t180.5 57.5q234 0 149 -342q-45 -186 -121.5 -261t-214.5 -75q-36 0 -79.5 6t-69.5 12zM573 1296q24 0 58.5 9t56.5 17l23 9
q26 98 10 152.5t-80 54.5q-53 0 -90.5 -31t-52.5 -90q-12 -54 7 -87.5t68 -33.5z" />
    <glyph glyph-name="zeroinferior" unicode="&#x2080;" horiz-adv-x="573" 
d="M444 657q116 0 158.5 -78t-2.5 -260q-55 -217 -151 -288q-67 -51 -173 -51q-76 0 -118.5 32t-55 108t20.5 202q54 213 153 286q59 49 168 49zM420 557q-66 0 -108.5 -54t-75.5 -184q-25 -91 -21.5 -143.5t25 -73t63.5 -20.5q63 0 106.5 53t77.5 187q32 128 16 181.5
t-83 53.5z" />
    <glyph glyph-name="oneinferior" unicode="&#x2081;" horiz-adv-x="573" 
d="M176 293l242 141h104l-157 -639h-111l129 518l-176 -102z" />
    <glyph glyph-name="twoinferior" unicode="&#x2082;" horiz-adv-x="573" 
d="M442 -205h-417l24 99l236 190q69 54 104.5 93t46.5 87q11 43 -13 63.5t-73 20.5q-28 0 -73.5 -5t-76.5 -10l-32 -5l20 100q123 25 209 25q101 0 139 -44.5t15 -136.5q-18 -67 -62 -119.5t-127 -117.5l-169 -139h274z" />
    <glyph glyph-name="threeinferior" unicode="&#x2083;" horiz-adv-x="573" 
d="M176 432q123 21 211 21q107 0 148.5 -40.5t19.5 -127.5q-4 -18 -11 -34t-15 -29t-16.5 -24.5t-18.5 -20.5t-18 -16t-17 -13t-14 -9.5t-11 -6.5l-6 -3q25 -8 39 -17.5t26 -27.5t10.5 -44t-9.5 -69q-48 -196 -265 -196q-44 0 -99 5.5t-88 11.5l-32 5l31 97q111 -17 205 -17
q111 0 135 96q26 101 -80 101h-133l22 96h134q32 0 68 31t46 73q9 40 -10 59t-74 19q-40 0 -88.5 -4t-77.5 -8l-28 -4z" />
    <glyph glyph-name="fourinferior" unicode="&#x2084;" horiz-adv-x="573" 
d="M313 -205l25 105h-293l25 94l266 440h121l-267 -432h172l54 178h102l-45 -178h62l-25 -102h-61l-27 -105h-109z" />
    <glyph glyph-name="fiveinferior" unicode="&#x2085;" horiz-adv-x="573" 
d="M203 434h372l-22 -100h-279l-55 -170q57 37 131 37q88 0 129.5 -49.5t16.5 -153.5q-58 -221 -273 -221q-43 0 -94.5 6.5t-82.5 12.5l-30 7l35 97q105 -23 189 -23q49 0 86.5 30.5t50.5 88.5q30 106 -68 106q-29 0 -61.5 -9t-49.5 -18l-18 -9l-86 10z" />
    <glyph glyph-name="sixinferior" unicode="&#x2086;" horiz-adv-x="573" 
d="M592 434l-29 -94q-92 14 -166 14q-69 0 -112.5 -41t-67.5 -133q87 33 139 33q105 0 144 -55t14 -154q-56 -229 -278 -229q-236 0 -152 336q46 184 127 263t211 79q34 0 76.5 -4.5t67.5 -9.5zM322 117q-28 0 -61 -9.5t-52 -18.5t-19 -11q-50 -203 68 -203q111 0 143 127
q15 64 -1.5 89.5t-77.5 25.5z" />
    <glyph glyph-name="seveninferior" unicode="&#x2087;" horiz-adv-x="573" 
d="M154 328l26 106h414l-37 -145l-346 -512l-123 28l342 478l10 45h-286z" />
    <glyph glyph-name="eightinferior" unicode="&#x2088;" horiz-adv-x="573" 
d="M397 453q114 0 161.5 -43t25.5 -129q-28 -125 -138 -152q103 -32 72 -156q-29 -112 -101 -155t-190 -43q-111 0 -163 45.5t-27 144.5q19 72 56.5 109t94.5 57q-89 33 -63 152q23 89 89.5 129.5t182.5 40.5zM252 -129q63 0 100.5 24t50.5 78q10 46 -5.5 69.5t-61.5 37.5
h-62q-54 -14 -82.5 -38.5t-39.5 -74.5q-12 -49 14.5 -72.5t85.5 -23.5zM373 358q-116 0 -137 -84q-9 -42 5 -63.5t56 -36.5h61q53 15 77.5 36t33.5 62q11 44 -11 65t-85 21z" />
    <glyph glyph-name="nineinferior" unicode="&#x2089;" horiz-adv-x="573" 
d="M27 -203l30 92q86 -12 162 -12q75 0 120 42t69 128q-85 -29 -148 -29q-97 0 -137 57.5t-14 157.5q24 105 98.5 162.5t179.5 57.5q235 0 150 -342q-45 -186 -121.5 -261t-214.5 -75q-36 0 -79.5 5.5t-69.5 11.5zM297 113q24 0 58.5 8.5t56.5 16.5l22 9q26 98 10.5 152.5
t-79.5 54.5q-53 0 -91 -31t-53 -90q-12 -54 7 -87t69 -33z" />
    <glyph glyph-name="Euro" unicode="&#x20ac;" 
d="M1014 123l-6 -100q-174 -43 -328 -43q-185 0 -278 98.5t-93 290.5q0 48 2 73h-102l24 103h89q18 137 49 235h-84l24 103h95q40 104 94 190t125.5 155t164.5 107.5t199 38.5q68 0 148.5 -11t126.5 -21l47 -11l-27 -98q-158 33 -301 33q-148 0 -261.5 -104.5t-186.5 -278.5
h579l-22 -103h-594q-40 -124 -54 -235h594l-22 -103h-580q-2 -25 -2 -69q0 -146 63.5 -214.5t200.5 -68.5q68 0 147 8t124 16z" />
    <glyph glyph-name="trademark" unicode="&#x2122;" horiz-adv-x="1437" 
d="M451 1196v88h409v-88h-149v-516h-95v516h-165zM926 678v606h131l149 -453l156 453h129v-606h-90v485l-154 -458h-82l-147 458v-485h-92z" />
    <glyph glyph-name="Omega" unicode="&#x2126;" 
d="M195 92h268q-9 16 -24.5 45t-55.5 113t-70 162.5t-55 178t-25 175.5q0 157 20 264.5t69.5 187t137 117t218.5 37.5t218.5 -37.5t136.5 -117.5t69 -187t20 -264q0 -76 -24 -173.5t-58 -182t-67.5 -158.5t-57.5 -117l-24 -43h270v-110h-397v94q9 18 24.5 48.5t54.5 117.5
t69 165t54.5 170.5t24.5 153.5q0 95 -4.5 162t-16.5 130.5t-33.5 104.5t-56 72.5t-84.5 45.5t-118 14q-59 0 -104.5 -11.5t-78.5 -31.5t-56 -55t-37.5 -74.5t-22.5 -98t-11 -118t-3 -140.5q0 -61 23 -151t56 -175t66.5 -161t56.5 -122l23 -46v-94h-395v110z" />
    <glyph glyph-name="partialdiff" unicode="&#x2202;" 
d="M371 1292l-9 101q7 4 20 11.5t53 25.5t80 32t96 25.5t106 11.5q241 0 355 -177t114 -574q0 -392 -109.5 -579t-351.5 -187q-451 0 -451 456q0 201 113.5 320t310.5 119q76 0 165 -16t141 -32l51 -16q-6 305 -88.5 440.5t-272.5 135.5q-65 0 -146 -24t-129 -49zM711 766
q-146 0 -227 -90t-81 -238q0 -167 82.5 -256.5t239.5 -89.5q172 0 250.5 149t81.5 459q-21 7 -56 18t-126.5 29.5t-163.5 18.5z" />
    <glyph glyph-name="Delta" unicode="&#x2206;" 
d="M176 92l342 1260h232l344 -1260v-92h-918v92zM659 1241h-51l-303 -1130h658z" />
    <glyph glyph-name="product" unicode="&#x220f;" 
d="M1020 -324v1751h-469v-1751h-127v1751h-150v113h1024v-113h-153v-1751h-125z" />
    <glyph glyph-name="summation" unicode="&#x2211;" 
d="M799 635l-561 721v184h948v-115h-817v-49l546 -696v-94l-546 -740v-57h817v-113h-948v187z" />
    <glyph glyph-name="minus" unicode="&#x2212;" 
d="M256 457v114h870v-114h-870z" />
    <glyph glyph-name="radical" unicode="&#x221a;" 
d="M240 803v112h229l281 -1089h18l496 1759h127l-535 -1868h-201l-290 1086h-125z" />
    <glyph glyph-name="infinity" unicode="&#x221e;" 
d="M449 248q-124 0 -186 90.5t-62 259.5q0 167 61 258.5t182 91.5q98 0 159 -57.5t108 -175.5q46 118 106 175.5t158 57.5q122 0 184 -91.5t62 -258.5q0 -169 -62.5 -259.5t-187.5 -90.5q-95 0 -154.5 56.5t-105.5 172.5q-50 -132 -105 -180.5t-157 -48.5zM664 598
q-5 12 -19.5 48t-21.5 50.5t-21.5 42.5t-26.5 40.5t-30 28.5t-40 22t-48 6q-72 0 -103.5 -59.5t-31.5 -178.5q0 -110 32.5 -174t102.5 -64q34 0 59 8t42 21t33 40.5t27.5 54t30.5 75.5q10 25 15 39zM756 598q7 -16 20.5 -48t21.5 -49t21.5 -43.5t26.5 -40.5t30.5 -29
t39 -21.5t47.5 -6.5q137 0 137 238q0 118 -32 178t-105 60q-26 0 -47.5 -6.5t-39 -21.5t-30 -28.5t-26.5 -40.5t-21.5 -43t-21.5 -49.5t-21 -48.5z" />
    <glyph glyph-name="integral" unicode="&#x222b;" 
d="M774 -8q0 -203 -65.5 -286t-206.5 -83q-33 0 -77 3.5t-71 7.5l-28 4l6 106q86 -8 149 -8q93 0 130.5 56.5t37.5 201.5v1175q0 159 31.5 254t89.5 133.5t150 38.5q40 0 85.5 -4t70.5 -8l26 -4l-6 -104q-78 10 -156 10q-85 0 -125.5 -71t-40.5 -245v-1177z" />
    <glyph glyph-name="approxequal" unicode="&#x2248;" 
d="M1104 768l22 -102q-5 -5 -14 -12t-36 -26.5t-53 -34t-61.5 -26.5t-66.5 -12q-50 0 -133.5 33.5t-161.5 67.5t-113 34q-36 0 -90 -25t-89 -50l-36 -25l-22 104q5 5 14 12t37 26.5t55 34t63.5 26.5t67.5 12q49 0 131 -33.5t160 -67.5t117 -34q34 0 86 24.5t87 49.5z
M1104 408l22 -103q-14 -12 -37 -30.5t-84.5 -49t-109.5 -30.5q-50 0 -133.5 33.5t-161.5 67.5t-113 34q-36 0 -90 -25t-89 -51l-36 -25l-22 105q14 12 38 30.5t87 49t112 30.5t131 -34t160 -67.5t117 -33.5q34 0 86 24.5t87 49.5z" />
    <glyph glyph-name="notequal" unicode="&#x2260;" 
d="M250 639v115h467l141 319l103 -41l-123 -278h290v-115h-340l-110 -252h450v-115h-501l-138 -315l-102 41l119 274h-256v115h307l111 252h-418z" />
    <glyph glyph-name="lessequal" unicode="&#x2264;" 
d="M1094 883l-719 -236l719 -256v-125l-867 320v114l867 310v-127zM227 47v113h867v-113h-867z" />
    <glyph glyph-name="greaterequal" unicode="&#x2265;" 
d="M977 647l-719 236v127l866 -310v-114l-866 -320v125zM1124 160v-113h-866v113h866z" />
    <glyph glyph-name="lozenge" unicode="&#x25ca;" 
d="M1053 676l-297 338h73l357 -338l-357 -338h-73zM268 676l357 338h69l-293 -338l293 -338h-69zM752 332h-52l-6 6h62zM694 1014l6 6h52l4 -6h-62z" />
    <glyph glyph-name="dotlessj" unicode="&#xf6be;" horiz-adv-x="403" 
d="M139 0l238 1024h123l-238 -1024q-20 -85 -33 -133t-36.5 -97t-45.5 -74.5t-67.5 -59t-93.5 -58t-133 -63.5l-41 100q70 36 109 57t76.5 49t54 48t35 57.5t28 73t24.5 100.5z" />
    <glyph glyph-name="commaaccent" unicode="&#xf6c3;" horiz-adv-x="329" 
d="M-76 -565l174 415h115l-190 -415h-99z" />
    <glyph glyph-name="CR" horiz-adv-x="456" 
 />
    <glyph glyph-name="DLE" horiz-adv-x="0" 
 />
    <glyph glyph-name="zero.pnum" horiz-adv-x="1058" 
d="M774 1042q182 0 261 -84t79 -251q0 -154 -61.5 -322.5t-182.5 -275.5q-143 -127 -360 -127q-173 0 -250.5 84t-77.5 249q0 192 77.5 366.5t213.5 270.5q131 90 301 90zM750 928q-96 0 -179 -51t-139 -134.5t-87.5 -190.5t-31.5 -220q0 -123 54 -179.5t174 -56.5
q85 0 156 35t117 91.5t80.5 122t52 133.5t26 118.5t8.5 83.5q0 132 -51.5 190t-179.5 58z" />
    <glyph glyph-name="one.pnum" horiz-adv-x="653" 
d="M227 791l420 233h125l-254 -1024h-129l217 874l-344 -190z" />
    <glyph glyph-name="two.pnum" horiz-adv-x="909" 
d="M838 0h-762l26 113l430 305q143 99 231.5 193t88.5 184q0 64 -43.5 97.5t-163.5 33.5q-56 0 -140.5 -9.5t-141 -18.5t-58.5 -11l19 110q218 45 374 45q149 0 221 -58t72 -153q0 -74 -23.5 -139t-69 -119t-91.5 -93.5t-111 -84.5l-399 -280h557z" />
    <glyph glyph-name="three.pnum" horiz-adv-x="937" 
d="M346 1001q213 41 371 41q301 0 301 -182q0 -68 -20 -124t-49.5 -90t-66 -57.5t-67 -33.5t-55.5 -12q72 -12 119 -60t47 -114q0 -75 -25 -141.5t-76 -123t-140.5 -89.5t-207.5 -33q-77 0 -175 9.5t-157 18.5l-59 10l43 109q202 -33 360 -33q156 0 233 73t77 179
q0 133 -205 133h-248l29 111h250q100 0 182 61t82 164q0 65 -44 88t-155 23q-69 0 -158.5 -8.5t-144.5 -17.5l-55 -9z" />
    <glyph glyph-name="four.pnum" horiz-adv-x="935" 
d="M625 0l53 213h-567l24 100l520 711h148l-514 -700h418l65 268h125l-68 -268h125l-26 -111h-125l-53 -213h-125z" />
    <glyph glyph-name="five.pnum" horiz-adv-x="940" 
d="M393 1026h658l-29 -117h-543l-110 -329q18 7 48 18t103.5 29t124.5 18q144 0 220.5 -59.5t76.5 -175.5q0 -189 -122 -308.5t-343 -119.5q-65 0 -159.5 11t-155.5 23l-62 11l41 110q222 -45 357 -45q141 0 227 85.5t86 211.5q0 74 -44 111t-157 37q-52 0 -127 -19
t-125 -38l-49 -19l-86 20z" />
    <glyph glyph-name="six.pnum" horiz-adv-x="972" 
d="M1079 1006l-37 -103q-147 29 -286 29q-148 0 -253.5 -90t-154.5 -279q48 26 151 53t179 27q170 0 235.5 -56t65.5 -169q0 -62 -14.5 -121t-51 -118t-91.5 -102t-142.5 -70t-196.5 -27q-155 0 -228 78.5t-73 217.5q0 152 37 287.5t108 243.5t186.5 171.5t260.5 63.5
q60 0 136 -9t122 -18zM643 539q-62 0 -141.5 -20t-128.5 -40l-49 -20q-19 -97 -19 -166q0 -47 9.5 -83t31.5 -66t64 -46t102 -16q88 0 155 28t101 65.5t55 86.5t26 81.5t5 59.5q0 31 -8 53.5t-29.5 42.5t-65 30t-108.5 10z" />
    <glyph glyph-name="seven.pnum" horiz-adv-x="806" 
d="M264 913l29 113h694l-41 -168l-657 -887l-101 60l627 837l12 45h-563z" />
    <glyph glyph-name="eight.pnum" horiz-adv-x="1007" 
d="M752 1042q167 0 254.5 -55t87.5 -147q0 -121 -73 -195t-194 -106q160 -57 160 -187q0 -81 -26.5 -146.5t-83.5 -117.5t-156 -80t-234 -28q-168 0 -257 56t-89 152q0 251 281 351q-135 62 -135 180q0 63 28 120t83 103t146.5 73t207.5 27zM516 94q340 0 340 262
q0 44 -38.5 73t-119.5 50h-182q-106 -22 -173 -87.5t-67 -176.5q0 -121 240 -121zM715 934q-55 0 -100.5 -8.5t-75.5 -22.5t-53 -33.5t-35.5 -39t-20.5 -42t-10 -38.5t-2 -33q0 -46 26 -75t101 -52h180q114 32 173.5 81t59.5 144q0 119 -243 119z" />
    <glyph glyph-name="nine.pnum" horiz-adv-x="972" 
d="M127 16l37 103q148 -29 287 -29q151 0 263.5 100.5t151.5 282.5q-182 -82 -336 -82q-87 0 -147.5 17.5t-92.5 50.5t-45.5 71t-13.5 88q0 58 14.5 114.5t50.5 113.5t90.5 99.5t141 69.5t195.5 27q155 0 228 -79.5t73 -219.5q0 -123 -22.5 -235t-70.5 -209t-117 -167.5
t-167 -111t-215 -40.5q-60 0 -136 9t-122 18zM567 498q62 0 142.5 19t130.5 39l49 19q14 72 14 154q0 99 -46.5 155t-162.5 56q-64 0 -117 -14t-87.5 -35.5t-60.5 -51.5t-40 -58.5t-22.5 -60t-10.5 -51.5t-2 -38q0 -133 213 -133z" />
    <glyph glyph-name="questiondown.cap" horiz-adv-x="811" 
d="M133 246q0 63 11.5 112t31.5 89t66 88t94.5 89.5t138.5 112.5q147 118 168 221l16 80h117q-4 -59 -14 -112q-26 -135 -211 -277q-74 -59 -114.5 -94t-79 -75t-56 -72t-27.5 -70.5t-10 -85.5q0 -80 57 -114t164 -34q53 0 126.5 10t120.5 20l48 9l-6 -102
q-180 -51 -313 -51q-150 0 -239 62.5t-89 193.5zM856 1432l-45 -211h-127l47 211h125z" />
    <glyph glyph-name="endash.cap" horiz-adv-x="1251" 
d="M254 666h1024v-111h-1024v111z" />
    <glyph glyph-name="emdash.cap" horiz-adv-x="2275" 
d="M254 666h2048v-111h-2048v111z" />
    <glyph glyph-name="periodcentered.cap" horiz-adv-x="356" 
d="M250 588l47 213h127l-47 -213h-127z" />
    <glyph glyph-name="exclamdown.cap" horiz-adv-x="399" 
d="M483 967l-223 -977h-123l238 977h108zM586 1423l-47 -204h-125l47 204h125z" />
    <glyph glyph-name="parenleft.cap" horiz-adv-x="458" 
d="M653 1593h119q-18 -28 -48.5 -77.5t-108 -201t-137 -300.5t-108 -351.5t-48.5 -377.5q0 -129 7 -248.5t14 -174.5l7 -55h-114q-5 19 -11.5 56.5t-18 161.5t-11.5 260t25.5 282t65.5 270t89 242.5t98 209.5t89 160.5t66 106.5z" />
    <glyph glyph-name="parenright.cap" horiz-adv-x="462" 
d="M135 -180h-119q9 14 25.5 40t63.5 109.5t89.5 169.5t94.5 211.5t89.5 245.5t63 262t25.5 270q0 129 -7.5 248.5t-14.5 174.5l-7 55h115q5 -19 11.5 -56.5t18 -161.5t11.5 -260t-25.5 -282t-66 -270t-89.5 -242.5t-97.5 -209.5t-89 -160.5t-66.5 -106.5z" />
    <glyph glyph-name="bracketleft.cap" horiz-adv-x="581" 
d="M502 1591h383l-25 -108h-260l-367 -1563h261l-29 -108h-381z" />
    <glyph glyph-name="bracketright.cap" horiz-adv-x="577" 
d="M401 -186h-383l25 108h260l367 1563h-260l28 108h381z" />
    <glyph glyph-name="braceleft.cap" horiz-adv-x="653" 
d="M467 518q0 -38 -49 -211.5t-49 -236.5q0 -152 196 -152l-30 -115q-289 9 -289 232q0 68 49 242.5t49 207.5q0 65 -34.5 102t-114.5 64l24 103q70 18 114 39.5t72 52.5t42 66.5t26 91.5q5 24 17 90.5t22 116.5t18 75q51 161 148.5 233.5t279.5 79.5l-20 -112
q-142 -7 -210.5 -69.5t-96.5 -190.5q-3 -16 -12.5 -71t-18.5 -102t-14 -69q-29 -128 -83 -188.5t-165 -98.5q62 -24 95.5 -65.5t33.5 -114.5z" />
    <glyph glyph-name="braceright.cap" horiz-adv-x="655" 
d="M510 881q0 38 49 211.5t49 236.5q0 152 -196 152l30 114q289 -9 289 -231q0 -68 -49 -243t-49 -208q0 -65 34.5 -101.5t114.5 -63.5l-24 -103q-70 -18 -114 -39.5t-72 -52.5t-42 -66.5t-26 -91.5q-4 -21 -17 -90t-23 -118t-18 -74q-51 -161 -149 -234t-279 -80l21 113
q142 7 210.5 69.5t96.5 190.5q3 16 12.5 71t18.5 102t14 69q29 128 82.5 188t165.5 98q-61 24 -95 66t-34 115z" />
    <glyph glyph-name="grave.cap" horiz-adv-x="991" 
d="M745 1894l359 -194l-53 -88l-365 180z" />
    <glyph glyph-name="caron.cap" horiz-adv-x="886" 
d="M1169 1905l-319 -275h-74l-201 275h121l133 -183l211 183h129z" />
    <glyph glyph-name="tilde.cap" horiz-adv-x="874" 
d="M1200 1878l6 -86q-14 -14 -37.5 -34t-76 -53.5t-82.5 -33.5q-37 0 -95 30.5t-111 60.5t-79 30q-19 0 -64 -26t-81 -52l-35 -26l-4 90q15 13 40 33t81 53.5t88 33.5q41 0 99 -29.5t109.5 -59t75.5 -29.5q17 0 58.5 24.5t74.5 49.5z" />
    <glyph glyph-name="dieresis.cap" horiz-adv-x="780" 
d="M598 1679l37 170h102l-41 -170h-98zM975 1679l41 170h100l-41 -170h-100z" />
    <glyph glyph-name="macron.cap" horiz-adv-x="886" 
d="M547 1696l20 94h586l-25 -94h-581z" />
    <glyph glyph-name="breve.cap" horiz-adv-x="886" 
d="M598 1888h109q-14 -85 20 -119t111 -34q70 0 128 42.5t76 110.5h109q-34 -120 -121.5 -186t-214.5 -66q-126 0 -183 63.5t-34 188.5z" />
    <glyph glyph-name="ring.cap" horiz-adv-x="632" 
d="M889 1622q-24 -92 -87.5 -143.5t-160.5 -51.5q-94 0 -136 52t-16 143q26 97 91 147t157 50q91 0 133.5 -49t18.5 -148zM573 1622q-11 -47 11 -76.5t78 -29.5t93.5 27.5t49.5 78.5q10 51 -14.5 80t-75.5 29q-55 0 -92.5 -28.5t-49.5 -80.5z" />
    <glyph glyph-name="hungarumlaut.cap" horiz-adv-x="1351" 
d="M1083 1554l-57 58l363 233l67 -59zM705 1556l-62 56l369 235l63 -61z" />
    <glyph glyph-name="dotaccent.cap" horiz-adv-x="444" 
d="M545 1634l35 160h102l-35 -160h-102z" />
    <glyph glyph-name="zero.numr" horiz-adv-x="573" 
d="M618 1432q116 0 158.5 -78t-2.5 -260q-56 -218 -151 -289q-67 -51 -172 -51q-76 0 -118.5 32t-55.5 108t20 202q54 212 154 286q60 50 167 50zM594 1331q-66 0 -108.5 -53.5t-75.5 -183.5q-25 -91 -21.5 -143.5t25 -73.5t63.5 -21q63 0 107 53t78 187q31 128 15 181.5
t-83 53.5z" />
    <glyph glyph-name="one.numr" horiz-adv-x="573" 
d="M383 1272l242 141h104l-158 -639h-110l129 518l-176 -102z" />
    <glyph glyph-name="two.numr" horiz-adv-x="573" 
d="M666 774h-418l24 98l236 191q69 54 104.5 93t46.5 87q11 43 -13 63.5t-73 20.5q-28 0 -73.5 -5t-77.5 -10l-31 -5l21 100q123 25 209 25q101 0 138.5 -44.5t14.5 -136.5q-18 -68 -62 -120.5t-126 -116.5l-170 -140h274z" />
    <glyph glyph-name="three.numr" horiz-adv-x="573" 
d="M410 1411q123 21 211 21q107 0 148 -40.5t19 -127.5q-4 -18 -11 -34t-15 -29t-16.5 -24.5t-18 -20.5t-17.5 -16t-17 -13t-14 -9.5t-11 -6.5l-6 -3q50 -17 67 -49t-2 -109q-48 -196 -264 -196q-44 0 -99 5.5t-88 10.5l-32 6l30 96q111 -16 205 -16q111 0 135 96
q26 101 -79 101h-134l23 96h133q33 0 69 31t46 73q9 40 -10 59t-74 19q-40 0 -88.5 -4t-77.5 -8l-29 -4z" />
    <glyph glyph-name="four.numr" horiz-adv-x="573" 
d="M524 774l25 105h-293l25 94l266 440h121l-267 -432h172l54 178h102l-45 -178h61l-24 -102h-62l-26 -105h-109z" />
    <glyph glyph-name="five.numr" horiz-adv-x="573" 
d="M438 1413h373l-23 -100h-278l-55 -170q57 37 131 37q88 0 129 -49t16 -154q-31 -118 -99.5 -169.5t-172.5 -51.5q-43 0 -94.5 6.5t-82.5 13.5l-30 6l35 97q104 -23 188 -23q49 0 86.5 30.5t50.5 88.5q16 58 -2.5 82t-64.5 24q-29 0 -61.5 -9.5t-49.5 -18.5l-18 -9l-86 11
z" />
    <glyph glyph-name="six.numr" horiz-adv-x="573" 
d="M815 1413l-29 -94q-91 14 -165 14q-69 0 -113 -41t-68 -133q87 33 140 33q105 0 143.5 -55t13.5 -154q-56 -229 -278 -229q-236 0 -152 336q46 184 127 263t211 79q34 0 76.5 -5t68.5 -9zM545 1096q-28 0 -60.5 -9.5t-51.5 -18.5t-19 -11q-50 -203 67 -203q112 0 144 127
q15 64 -2 89.5t-78 25.5z" />
    <glyph glyph-name="seven.numr" horiz-adv-x="573" 
d="M381 1307l27 106h413l-37 -145l-346 -512l-123 28l342 478l11 45h-287z" />
    <glyph glyph-name="eight.numr" horiz-adv-x="573" 
d="M621 1432q114 0 161 -43t25 -129q-28 -125 -137 -152q48 -15 68 -50.5t3 -105.5q-29 -112 -100.5 -155t-189.5 -43q-111 0 -163.5 45.5t-27.5 144.5q19 72 57 109t95 57q-90 34 -64 152q23 89 90 129.5t183 40.5zM475 850q127 0 152 102q10 46 -6 69.5t-62 37.5h-61
q-55 -14 -83.5 -38.5t-39.5 -74.5q-12 -49 14.5 -72.5t85.5 -23.5zM596 1337q-116 0 -137 -84q-9 -42 5 -63.5t56 -36.5h62q53 15 77 36t33 62q11 44 -11 65t-85 21z" />
    <glyph glyph-name="nine.numr" horiz-adv-x="573" 
d="M258 776l31 92q86 -12 162 -12q75 0 119.5 41.5t68.5 128.5q-84 -29 -147 -29q-97 0 -137.5 57.5t-14.5 157.5q24 105 98.5 162.5t179.5 57.5q235 0 150 -342q-45 -186 -121.5 -261t-214.5 -75q-36 0 -79.5 5.5t-68.5 10.5zM528 1092q24 0 58.5 8.5t57.5 17.5l22 8
q26 98 10 152.5t-80 54.5q-53 0 -90.5 -31t-52.5 -90q-12 -54 6.5 -87t68.5 -33z" />
    <glyph glyph-name="zero.slash" 
d="M850 1372q128 0 213 -43l199 305l90 -35l-211 -325q110 -104 110 -309q0 -118 -18 -235t-52.5 -227.5t-89.5 -205t-125.5 -165.5t-164.5 -111.5t-201 -40.5q-153 0 -254 75l-190 -295l-86 33l211 328q-74 100 -74 262q0 143 26 283.5t80 268t129 225t180.5 155
t227.5 57.5zM1118 952q0 126 -55 203l-643 -989q67 -70 188 -70q123 0 223.5 79.5t161 206.5t93 274.5t32.5 295.5zM842 1255q-102 0 -187 -54t-142 -142t-97 -202.5t-58 -231.5t-18 -232q0 -82 25 -143l628 969q-59 36 -151 36z" />
    <glyph glyph-name="at.cap" horiz-adv-x="1865" 
d="M1335 1667q191 0 328.5 -45.5t214 -123t111 -189.5t29.5 -235.5t-40 -270.5q-38 -161 -80 -274.5t-84 -182.5t-95 -107.5t-103.5 -51.5t-118.5 -13q-86 0 -135 28t-59 93q-88 -44 -198 -82.5t-194 -38.5q-59 0 -103.5 15.5t-71 41t-43 64t-22.5 76t-5 86t5.5 85
t12.5 81.5q110 616 520 616q117 0 375 -49q-36 -138 -102.5 -436.5t-67.5 -372.5q-1 -56 25 -73t88 -17q44 0 77.5 10.5t70 43.5t67.5 90.5t64 154.5t65 233q21 92 30 169t4.5 153.5t-26 136.5t-65 113t-110 87.5t-164 54t-222.5 19.5q-391 0 -611.5 -191t-328.5 -632
q-206 -835 573 -835q34 0 103.5 4.5t122.5 9.5l53 4l-21 -111q-194 -20 -286 -20q-150 0 -268.5 30t-197 81t-131.5 124.5t-78.5 155t-31 178t5 188.5t33.5 191q61 258 153 436t226 289t305.5 160t400.5 49zM940 289q133 -2 346 112q9 105 150 699q-114 30 -240 30
q-157 0 -246.5 -128t-142.5 -381q-14 -65 -16.5 -120t8.5 -105t46.5 -78.5t94.5 -28.5z" />
    <glyph glyph-name="zero.dnom" horiz-adv-x="573" 
d="M399 453q116 0 158.5 -78t-2.5 -260q-55 -217 -152 -289q-67 -51 -172 -51q-76 0 -118.5 32t-55 108t20.5 202q54 213 153 286q60 50 168 50zM375 352q-66 0 -109 -53.5t-76 -183.5q-25 -91 -21 -143.5t25.5 -73.5t63.5 -21q63 0 106.5 53t77.5 187q32 127 16 181t-83 54
z" />
    <glyph glyph-name="one.dnom" horiz-adv-x="573" 
d="M172 293l242 141h104l-158 -639h-110l129 518l-176 -102z" />
    <glyph glyph-name="two.dnom" horiz-adv-x="573" 
d="M446 -205h-417l24 99l236 190q69 54 104.5 93t46.5 87q11 43 -13 63.5t-73 20.5q-28 0 -73.5 -5t-76.5 -10l-32 -5l21 100q122 25 208 25q101 0 139 -44.5t15 -136.5q-18 -68 -62 -120.5t-126 -116.5l-170 -139h274z" />
    <glyph glyph-name="three.dnom" horiz-adv-x="573" 
d="M178 432q123 21 211 21q107 0 148.5 -40.5t19.5 -127.5q-4 -18 -11 -34t-15 -29t-16.5 -24.5t-18.5 -20.5t-18 -16t-17 -13t-14 -9.5t-11 -6.5l-6 -3q25 -8 39 -17.5t26 -27.5t10.5 -44t-9.5 -69q-48 -196 -265 -196q-44 0 -99 5.5t-88 11.5l-32 5l31 97q111 -17 205 -17
q111 0 135 96q26 101 -80 101h-133l23 96h133q32 0 68 31t46 73q9 40 -10 59t-74 19q-40 0 -88.5 -4t-77.5 -8l-28 -4z" />
    <glyph glyph-name="four.dnom" horiz-adv-x="573" 
d="M315 -205l25 105h-293l25 94l266 440h121l-266 -432h172l53 178h102l-45 -178h62l-25 -102h-61l-27 -105h-109z" />
    <glyph glyph-name="five.dnom" horiz-adv-x="573" 
d="M203 434h372l-22 -100h-279l-55 -170q57 37 131 37q88 0 129.5 -49.5t16.5 -153.5q-58 -221 -273 -221q-43 0 -94.5 6.5t-82.5 12.5l-30 7l35 97q105 -23 189 -23q49 0 86.5 30.5t50.5 88.5q30 106 -68 106q-29 0 -61.5 -9t-49.5 -18l-18 -9l-86 10z" />
    <glyph glyph-name="six.dnom" horiz-adv-x="573" 
d="M590 434l-29 -94q-92 14 -166 14q-69 0 -112.5 -41t-67.5 -133q87 33 139 33q105 0 144 -55t14 -154q-56 -229 -279 -229q-235 0 -151 336q46 184 127 263t211 79q34 0 76.5 -4.5t67.5 -9.5zM319 117q-28 0 -60.5 -9.5t-51.5 -18.5t-19 -11q-50 -203 68 -203
q111 0 143 127q15 64 -2 89.5t-78 25.5z" />
    <glyph glyph-name="seven.dnom" horiz-adv-x="573" 
d="M154 328l26 106h414l-37 -145l-346 -512l-123 28l342 478l10 45h-286z" />
    <glyph glyph-name="eight.dnom" horiz-adv-x="573" 
d="M399 453q114 0 161.5 -43t25.5 -129q-28 -125 -137 -152q48 -15 68 -50.5t3 -105.5q-29 -112 -101 -155t-190 -43q-111 0 -163 45.5t-27 144.5q19 72 56.5 109t94.5 57q-89 33 -63 152q23 89 89.5 129.5t182.5 40.5zM254 -129q127 0 152 102q10 46 -6 69.5t-62 37.5h-62
q-54 -14 -82.5 -38.5t-39.5 -74.5q-12 -49 14.5 -72.5t85.5 -23.5zM375 358q-116 0 -137 -84q-9 -42 5 -63.5t56 -36.5h61q53 15 77.5 36t33.5 62q11 44 -11 65t-85 21z" />
    <glyph glyph-name="nine.dnom" horiz-adv-x="573" 
d="M29 -203l30 92q86 -12 162 -12q75 0 120 42t69 128q-85 -29 -148 -29q-97 0 -137 57.5t-14 157.5q24 105 98.5 162.5t179.5 57.5q235 0 150 -342q-45 -186 -121.5 -261t-214.5 -75q-36 0 -79.5 5.5t-69.5 11.5zM299 113q24 0 58.5 8.5t56.5 16.5l22 9q26 98 10.5 152.5
t-79.5 54.5q-53 0 -91 -31t-53 -90q-12 -54 7 -87t69 -33z" />
    <glyph glyph-name="hyphen.cap" horiz-adv-x="722" 
d="M236 553l28 115h504l-29 -115h-503z" />
    <glyph glyph-name="acute.cap.001" horiz-adv-x="1021" 
d="M678 1618l-16 92l448 195l18 -107z" />
    <glyph glyph-name="circumflex.cap.001" horiz-adv-x="886" 
d="M516 1632l330 275h61l199 -275h-115l-125 176l-215 -176h-135z" />
    </font>
</defs>
</svg>
